(Classical, oratorio) Simon Mayr - Gioas - Brown, Sellier, Frey, Burkhart; Bavarian State Opera Chorus, Simon Mayr Chorus and Ensemble, Franz Hauk - 2CD - 2012, FLAC (image+.cue) lossless


Статистика раздачи [Обновить пиров]
Размер:  480 MB   |    Зарегистрирован:  1 год 1 месяц   |    Скачан:  0 раз

Полного источника не было: Никогда

 
   
 
 
 

[Цитировать]

Simon Mayr - Gioas - Brown, Sellier, Frey, Burkhart; Bavarian State Opera Chorus, Simon Mayr Chorus and Ensemble, Franz Hauk
Жанр: Classical, oratorio
Год издания диска: 2012
Издатель (лейбл): Naxos
Номер по каталогу: 8.572710-11
Дата записи: 2010
Аудиокодек: FLAC
Тип рипа: image+.cue
Битрейт аудио: lossless
Продолжительность: 111:30
Источник: собственный рип
Наличие сканов в содержимом раздачи: да
Треклист:
Simon Mayr (1763-1845)
Innalzamento al trono del giovane re Gioas
(Oratorio)
CD1
[1]-[22] Part One
CD2
[1]-[22] Part Two
Исполнители:
Sebia (Zibiah, Mother of Joash) Andrea Lauren Brown soprano
Gioas (Joash, her son) Robert Sellier tenor
Adrasto (Confidant of Zibiah) Cornel Frey tenor
Giojada (Jehoiada, High Priest) Andreas Burkhart bass
Bavarian State Opera Chorus
Simon Mayr Chorus and Ensemble

Directed from the harpsichord by
Franz Hauk

Лог создания рипа: CD1

Exact Audio Copy V1.0 beta 3 from 29. August 2011
EAC extraction logfile from 5. January 2014, 1:41
Soloists, Bavarian State Opera Chorus, Simon Mayr Chorus and Ensemble, Franz Hauk / Mayr - Gioas - Part One
Used drive : HL-DT-STDVDRAM GSA-4083N Adapter: 1 ID: 0
Read mode : SecureUtilize accurate stream : YesDefeat audio cache : YesMake use of C2 pointers : No
Read offset correction : 667Overread into Lead-In and Lead-Out : NoFill up missing offset samples with silence : YesDelete leading and trailing silent blocks : NoNull samples used in CRC calculations : YesUsed interface : Native Win32 interface for Win NT & 2000
Used output format : User Defined EncoderSelected bitrate : 896 kBit/sQuality : HighAdd ID3 tag : NoCommand line compressor : C:\Program Files\Exact Audio Copy\Flac\flac.exeAdditional command line options : -V -8 %source%
TOC of the extracted CD
Track | Start | Length | Start sector | End sector --------------------------------------------------------- 1 | 0:00.00 | 5:35.24 | 0 | 25148 2 | 5:35.24 | 4:15.25 | 25149 | 44298 3 | 9:50.49 | 0:42.04 | 44299 | 47452 4 | 10:32.53 | 3:31.47 | 47453 | 63324 5 | 14:04.25 | 3:37.74 | 63325 | 79673 6 | 17:42.24 | 0:51.09 | 79674 | 83507 7 | 18:33.33 | 4:56.34 | 83508 | 105741 8 | 23:29.67 | 2:36.03 | 105742 | 117444 9 | 26:05.70 | 3:55.28 | 117445 | 135097 10 | 30:01.23 | 1:51.65 | 135098 | 143487 11 | 31:53.13 | 1:24.50 | 143488 | 149837 12 | 33:17.63 | 5:40.53 | 149838 | 175390 13 | 38:58.41 | 0:34.72 | 175391 | 178012 14 | 39:33.38 | 4:44.47 | 178013 | 199359 15 | 44:18.10 | 1:56.60 | 199360 | 208119 16 | 46:14.70 | 3:54.20 | 208120 | 225689 17 | 50:09.15 | 1:41.42 | 225690 | 233306 18 | 51:50.57 | 0:35.73 | 233307 | 236004 19 | 52:26.55 | 3:02.27 | 236005 | 249681 20 | 55:29.07 | 0:45.29 | 249682 | 253085 21 | 56:14.36 | 1:14.37 | 253086 | 258672 22 | 57:28.73 | 6:04.02 | 258673 | 285974
Range status and errors
Selected range
Filename J:\New Music\Naxos_8.572710-11 - Mayr - Gioas\Mayr - Gioas - CD1.wav
Peak level 99.1 % Extraction speed 2.7 X Range quality 99.9 % Test CRC 052769DE Copy CRC 052769DE Copy OK
No errors occurred
AccurateRip summary
Track 1 not present in databaseTrack 2 not present in databaseTrack 3 not present in databaseTrack 4 not present in databaseTrack 5 not present in databaseTrack 6 not present in databaseTrack 7 not present in databaseTrack 8 not present in databaseTrack 9 not present in databaseTrack 10 not present in databaseTrack 11 not present in databaseTrack 12 not present in databaseTrack 13 not present in databaseTrack 14 not present in databaseTrack 15 not present in databaseTrack 16 not present in databaseTrack 17 not present in databaseTrack 18 not present in databaseTrack 19 not present in databaseTrack 20 not present in databaseTrack 21 not present in databaseTrack 22 not present in database
None of the tracks are present in the AccurateRip database
End of status report
==== Log checksum 58A14FDA21E4B9C518EDC25E95EC7CA256B4003E5380456A816BB9C07EA9728B ====

Лог создания рипа: CD2

Exact Audio Copy V1.0 beta 3 from 29. August 2011
EAC extraction logfile from 5. January 2014, 2:29
Soloists, Bavarian State Opera Chorus, Simon Mayr Chorus and Ensemble, Franz Hauk / Mayr - Gioas - Part Two
Used drive : HL-DT-STDVDRAM GSA-4083N Adapter: 1 ID: 0
Read mode : SecureUtilize accurate stream : YesDefeat audio cache : YesMake use of C2 pointers : No
Read offset correction : 667Overread into Lead-In and Lead-Out : NoFill up missing offset samples with silence : YesDelete leading and trailing silent blocks : NoNull samples used in CRC calculations : YesUsed interface : Native Win32 interface for Win NT & 2000
Used output format : User Defined EncoderSelected bitrate : 896 kBit/sQuality : HighAdd ID3 tag : NoCommand line compressor : C:\Program Files\Exact Audio Copy\Flac\flac.exeAdditional command line options : -V -8 %source%
TOC of the extracted CD
Track | Start | Length | Start sector | End sector --------------------------------------------------------- 1 | 0:00.00 | 1:41.35 | 0 | 7609 2 | 1:41.35 | 0:47.04 | 7610 | 11138 3 | 2:28.39 | 4:10.25 | 11139 | 29913 4 | 6:38.64 | 0:22.52 | 29914 | 31615 5 | 7:01.41 | 2:04.31 | 31616 | 40946 6 | 9:05.72 | 1:53.68 | 40947 | 49489 7 | 10:59.65 | 0:58.26 | 49490 | 53865 8 | 11:58.16 | 4:18.46 | 53866 | 73261 9 | 16:16.62 | 4:26.42 | 73262 | 93253 10 | 20:43.29 | 5:34.23 | 93254 | 118326 11 | 26:17.52 | 1:03.45 | 118327 | 123096 12 | 27:21.22 | 3:34.65 | 123097 | 139211 13 | 30:56.12 | 0:27.27 | 139212 | 141263 14 | 31:23.39 | 1:07.67 | 141264 | 146355 15 | 32:31.31 | 1:46.73 | 146356 | 154378 16 | 34:18.29 | 2:33.33 | 154379 | 165886 17 | 36:51.62 | 3:04.54 | 165887 | 179740 18 | 39:56.41 | 1:48.50 | 179741 | 187890 19 | 41:45.16 | 1:44.02 | 187891 | 195692 20 | 43:29.18 | 0:30.25 | 195693 | 197967 21 | 43:59.43 | 0:54.47 | 197968 | 202064 22 | 44:54.15 | 2:58.60 | 202065 | 215474
Range status and errors
Selected range
Filename J:\New Music\Naxos_8.572710-11 - Mayr - Gioas\Mayr - Gioas - CD2.wav
Peak level 99.3 % Extraction speed 2.6 X Range quality 100.0 % Test CRC 97AFEC08 Copy CRC 97AFEC08 Copy OK
No errors occurred
AccurateRip summary
Track 1 not present in databaseTrack 2 not present in databaseTrack 3 not present in databaseTrack 4 not present in databaseTrack 5 not present in databaseTrack 6 not present in databaseTrack 7 not present in databaseTrack 8 not present in databaseTrack 9 not present in databaseTrack 10 not present in databaseTrack 11 not present in databaseTrack 12 not present in databaseTrack 13 not present in databaseTrack 14 not present in databaseTrack 15 not present in databaseTrack 16 not present in databaseTrack 17 not present in databaseTrack 18 not present in databaseTrack 19 not present in databaseTrack 20 not present in databaseTrack 21 not present in databaseTrack 22 not present in database
None of the tracks are present in the AccurateRip database
End of status report
==== Log checksum 139AC1413A966543372733DBE31F8BACB9FBC53EE9C35873C4C15934DDAB39F8 ====
[teatrix.ru].t7979.torrent 
Торрент: Зарегистрирован [ 2015-10-14 02:49 ] · AF050CD5C29CC8C9AE89D68E75FF3D15915C947B

Скачать .torrent

Скачать

39 KB

Статус: проверено
Скачан: 0 раз
Размер: 480 MB
terms.php



Быстрый ответ

Имя:

      
Для отправки сообщений необходимо включить JavaScript
Показать сообщения:    

Текущее время: 05-Дек 05:32

Часовой пояс: UTC + 3


Вы можете начинать темы
Вы можете отвечать на сообщения
Вы не можете редактировать свои сообщения
Вы не можете удалять свои сообщения
Вы не можете голосовать в опросах
Вы не можете прикреплять файлы к сообщениям
Вы можете скачивать файлы