(Sacred) Johann Sebastian Bach - Mass in B Minor {Missa h-moll} (Heaston, Hanslowe, Rabiner, Tucker, Berg, Boston Baroque, Martin Pearlman) - 2000, FLAC (image+.cue) lossless


Статистика раздачи [Обновить пиров]
Размер:  438 MB   |    Зарегистрирован:  1 год 1 месяц   |    Скачан:  0 раз

Полного источника не было: Никогда

 
   
 
 
 

[Цитировать]

Johann Sebastian Bach - Mass in B Minor
Boston Baroque, Martin Pearlman
Жанр: Sacred
Страна-производитель диска: USA
Год издания диска: 2000
Издатель (лейбл): Telarc
Номер по каталогу: 2CD-80517
Дата записи: 1999
Аудиокодек: FLAC
Тип рипа: image+.cue
Битрейт аудио: lossless
Продолжительность: 1:44:25
Источник: собственный рип
Наличие сканов в содержимом раздачи: да
Исполнители:
Nicole Heaston - soprano
Theodora Hanslowe - mezzo-soprano
Ellen Rabiner - contralto
Mark Tucker - tenor
Nathan Berg - bass-baritone
Boston Baroque
Martin Pearlman - conductor
Performed on period instruments

Треклист

CD1
1 Kyrie Eleison 9:26
2 Christe Eleison 4:44
3 Kyrie Eleison 3:07
4 Gloria In Excelsis Deo 1:41
5 Et In Terra Pax 4:08
6 Laudamus tae 4:16
7 Gratias Agimus Tibi 3:07
8 Domine Deus 5:23
9 Qui Tollis Peccata Mundi 2:55
10 Qui Sedes Ad Dextram Patris 4:18
11 Quoniam Tu Solus Sanctus 4:42
12 Cum Sancto Spiritu 3:33
CD2
1 Credo In Unum Deum 1:39
2 Patrem Omnipotentem 1:59
3 Et In Unum Dominum 4:12
4 Et Incarnatus Est 2:47
5 Crucifixus 2:53
6 Et Resurrexit 3:43
7 Et In Spiritum Sanctum 5:41
8 Confiteor 4:07
9 Et Exspecto 2:10
10 Sanctus 5:05
11 Osanna In Excelsis 2:41
12 Benedictus 4:22
13 Osanna In Excelsis 2:41
14 Agnus Dei 4:47
15 Dona Nobis Pacem 4:18

Лог создания рипа

Лог создания рипа CD1

Exact Audio Copy V1.0 beta 3 from 29. August 2011
EAC extraction logfile from 16. February 2014, 13:06
Boston Baroque / Mass in B Minor CD1
Used drive : TSSTcorp CDDVDW Adapter: 0 ID: 0
Read mode : Secure
Utilize accurate stream : Yes
Defeat audio cache : Yes
Make use of C2 pointers : No
Read offset correction : 6
Overread into Lead-In and Lead-Out : No
Fill up missing offset samples with silence : Yes
Delete leading and trailing silent blocks : No
Null samples used in CRC calculations : Yes
Used interface : Installed external ASPI interface
Used output format : User Defined Encoder
Selected bitrate : 768 kBit/s
Quality : High
Add ID3 tag : No
Command line compressor : C:\Program Files (x86)\Exact Audio Copy\FLAC\FLAC.EXE
Additional command line options : -6 -V -T "ARTIST=%artist%" -T "TITLE=%title%" -T "ALBUM=%albumtitle%" -T "DATE=%year%" -T "TRACKNUMBER=%tracknr%" -T "GENRE=%genre%" -T "COMMENT=%comment%" -T "BAND=%albuminterpret%" -T "ALBUMARTIST=%albuminterpret%" -T "COMPOSER=%composer%" %haslyrics%--tag-from-file=LYRICS="%lyricsfile%"%haslyrics% -T "DISCNUMBER=%cdnumber%" -T "TOTALDISCS=%totalcds%" -T "TOTALTRACKS=%numtracks%" %hascover%--picture="%coverfile%"%hascover% %source% -o %dest%
TOC of the extracted CD
Track | Start | Length | Start sector | End sector
---------------------------------------------------------
1 | 0:00.00 | 9:26.62 | 0 | 42511
2 | 9:26.62 | 4:44.48 | 42512 | 63859
3 | 14:11.35 | 3:07.52 | 63860 | 77936
4 | 17:19.12 | 1:41.53 | 77937 | 85564
5 | 19:00.65 | 4:08.35 | 85565 | 104199
6 | 23:09.25 | 4:16.00 | 104200 | 123399
7 | 27:25.25 | 3:07.00 | 123400 | 137424
8 | 30:32.25 | 5:23.20 | 137425 | 161669
9 | 35:55.45 | 2:55.45 | 161670 | 174839
10 | 38:51.15 | 4:18.50 | 174840 | 194239
11 | 43:09.65 | 4:42.12 | 194240 | 215401
12 | 47:52.02 | 3:33.23 | 215402 | 231399
Range status and errors
Selected range
Filename C:\RIP\Bach - Mass in B Minor (Pearlman) CD1.wav
Peak level 80.4 %
Extraction speed 3.2 X
Range quality 100.0 %
Test CRC EFBA04CB
Copy CRC EFBA04CB
Copy OK
No errors occurred
AccurateRip summary
Track 1 accurately ripped (confidence 5) [F2F0C3CD] (AR v2)
Track 2 accurately ripped (confidence 5) [A7E2E1DE] (AR v2)
Track 3 accurately ripped (confidence 5) [720F58E1] (AR v2)
Track 4 accurately ripped (confidence 5) [2338E2A6] (AR v2)
Track 5 accurately ripped (confidence 5) [1C89AC81] (AR v2)
Track 6 accurately ripped (confidence 5) [0D7C2745] (AR v2)
Track 7 accurately ripped (confidence 5) [D4455BA7] (AR v2)
Track 8 accurately ripped (confidence 5) [4562176F] (AR v2)
Track 9 accurately ripped (confidence 5) [C6851767] (AR v2)
Track 10 accurately ripped (confidence 5) [3D55276D] (AR v2)
Track 11 accurately ripped (confidence 5) [CBF37B3E] (AR v2)
Track 12 accurately ripped (confidence 5) [36A51781] (AR v2)
All tracks accurately ripped
End of status report
==== Log checksum 3B8C64C2391638D10C8B20D9A48C359AF97EDE4EA0AA93BC344EB940010CE3E4 ====

Лог создания рипа CD2

Exact Audio Copy V1.0 beta 3 from 29. August 2011
EAC extraction logfile from 16. February 2014, 14:33
Boston Baroque / Mass in B Minor CD2
Used drive : TSSTcorp CDDVDW Adapter: 0 ID: 0
Read mode : Secure
Utilize accurate stream : Yes
Defeat audio cache : Yes
Make use of C2 pointers : No
Read offset correction : 6
Overread into Lead-In and Lead-Out : No
Fill up missing offset samples with silence : Yes
Delete leading and trailing silent blocks : No
Null samples used in CRC calculations : Yes
Used interface : Installed external ASPI interface
Used output format : User Defined Encoder
Selected bitrate : 768 kBit/s
Quality : High
Add ID3 tag : No
Command line compressor : C:\Program Files (x86)\Exact Audio Copy\FLAC\FLAC.EXE
Additional command line options : -6 -V -T "ARTIST=%artist%" -T "TITLE=%title%" -T "ALBUM=%albumtitle%" -T "DATE=%year%" -T "TRACKNUMBER=%tracknr%" -T "GENRE=%genre%" -T "COMMENT=%comment%" -T "BAND=%albuminterpret%" -T "ALBUMARTIST=%albuminterpret%" -T "COMPOSER=%composer%" %haslyrics%--tag-from-file=LYRICS="%lyricsfile%"%haslyrics% -T "DISCNUMBER=%cdnumber%" -T "TOTALDISCS=%totalcds%" -T "TOTALTRACKS=%numtracks%" %hascover%--picture="%coverfile%"%hascover% %source% -o %dest%
TOC of the extracted CD
Track | Start | Length | Start sector | End sector
---------------------------------------------------------
1 | 0:00.00 | 1:39.60 | 0 | 7484
2 | 1:39.60 | 1:59.35 | 7485 | 16444
3 | 3:39.20 | 4:12.65 | 16445 | 35409
4 | 7:52.10 | 2:47.72 | 35410 | 48006
5 | 10:40.07 | 2:53.48 | 48007 | 61029
6 | 13:33.55 | 3:43.65 | 61030 | 77819
7 | 17:17.45 | 5:41.50 | 77820 | 103444
8 | 22:59.20 | 4:07.37 | 103445 | 122006
9 | 27:06.57 | 2:10.48 | 122007 | 131804
10 | 29:17.30 | 5:05.65 | 131805 | 154744
11 | 34:23.20 | 2:41.55 | 154745 | 166874
12 | 37:05.00 | 4:22.05 | 166875 | 186529
13 | 41:27.05 | 2:41.20 | 186530 | 198624
14 | 44:08.25 | 4:47.50 | 198625 | 220199
15 | 48:56.00 | 4:18.42 | 220200 | 239591
Range status and errors
Selected range
Filename C:\RIP\Bach - Mass in B Minor (Pearlman) CD2.wav
Peak level 81.4 %
Extraction speed 3.2 X
Range quality 100.0 %
Test CRC 5DB50642
Copy CRC 5DB50642
Copy OK
No errors occurred
AccurateRip summary
Track 1 accurately ripped (confidence 5) [1DB12BBA] (AR v2)
Track 2 accurately ripped (confidence 5) [C8F26108] (AR v2)
Track 3 accurately ripped (confidence 5) [D0B4AFB3] (AR v2)
Track 4 accurately ripped (confidence 5) [00ECECDE] (AR v2)
Track 5 accurately ripped (confidence 5) [CD8B724E] (AR v2)
Track 6 accurately ripped (confidence 5) [128258AB] (AR v2)
Track 7 accurately ripped (confidence 5) [15DA1563] (AR v2)
Track 8 accurately ripped (confidence 5) [90B4FCD9] (AR v2)
Track 9 accurately ripped (confidence 5) [AA17CB15] (AR v2)
Track 10 accurately ripped (confidence 5) [49435583] (AR v2)
Track 11 accurately ripped (confidence 5) [9D8DBE11] (AR v2)
Track 12 accurately ripped (confidence 5) [19B2AADA] (AR v2)
Track 13 accurately ripped (confidence 5) [9FB27D5E] (AR v2)
Track 14 accurately ripped (confidence 5) [001BF8DB] (AR v2)
Track 15 accurately ripped (confidence 5) [23E17C21] (AR v2)
All tracks accurately ripped
End of status report
==== Log checksum 832A47C6E84033213216146EFA0BA239052D5255ECA6F6D63A6F8F59EF2E39F3 ====
[teatrix.ru].t7980.torrent 
Торрент: Зарегистрирован [ 2015-10-14 02:49 ] · 09EC3938229D282CE2B6B58ADB9641DE452E24A5

Скачать .torrent

Скачать

19 KB

Статус: проверено
Скачан: 0 раз
Размер: 438 MB
terms.php



Быстрый ответ

Имя:

      
Для отправки сообщений необходимо включить JavaScript
Показать сообщения:    

Текущее время: 09-Дек 12:45

Часовой пояс: UTC + 3


Вы можете начинать темы
Вы можете отвечать на сообщения
Вы не можете редактировать свои сообщения
Вы не можете удалять свои сообщения
Вы не можете голосовать в опросах
Вы не можете прикреплять файлы к сообщениям
Вы можете скачивать файлы