(Classical) The Sistine Choir: Vatican Choir featuring Gregorian Chants - 2005, FLAC (image+.cue) lossless


Статистика раздачи [Обновить пиров]
Размер:  228 MB   |    Зарегистрирован:  1 год 1 месяц   |    Скачан:  0 раз

Полного источника не было: Никогда

 
   
 
 
 

[Цитировать]

The Sistine Choir: Vatican Choir featuring Gregorian Chants
Жанр: Classical
Год издания диска: 2005
Издатель (лейбл): Classic Company
Аудиокодек: FLAC
Тип рипа: image+.cue
Битрейт аудио: lossless
Продолжительность: 66:40
Источник: собственный рип
Наличие сканов в содержимом раздачи: да
Треклист:
1. Adeste Fidelis (4:51)
2. Des Pres: Ave Maria (6:08)
3. Palestrina: Surge Illuminaire (2:29)
4. Hodie Christus Natus Est (2:51)
5. Benedictus Qui Venit-Hosanna (4:27)
6. De Morales: Pastores Dicite (3:31)
7. Marenzio: Innocentes Pro Christo (2:32)
8. Filippine: Sopra in fieno colcato (3:26)
9. Dio S'ei Fatto Fanciullo (1:36)
10. Perosi: Cantate Domine (2:28)
11. Bartolucci: Christus Est Qui Natus Hodie (6:07)
12. Palestrina; Dies Santificatus (3:42)
13. Palestrina: Improperia (4:15)
14. Tenebrae (4:40)
15. Bartolucci: Ave Maria, Vergine Fiore (2:42)
16. Rorate Caeli-Song of Advent (3:07)
17. Victimae Paschali - Easter Victim (2:08)
18. Vexilla Regis - King's Insignia (5:40)

LOG EAC

Exact Audio Copy V1.0 beta 3 from 29. August 2011
EAC extraction logfile from 15. February 2014, 9:39
Sistine Chapel Chior / Sistine Choir in Concert At The Vatican
Used drive : ATAPI iHAS122 C Adapter: 0 ID: 0
Read mode : SecureUtilize accurate stream : YesDefeat audio cache : YesMake use of C2 pointers : No
Read offset correction : 6Overread into Lead-In and Lead-Out : NoFill up missing offset samples with silence : YesDelete leading and trailing silent blocks : NoNull samples used in CRC calculations : YesUsed interface : Installed external ASPI interface
Used output format : User Defined EncoderSelected bitrate : 192 kBit/sQuality : HighAdd ID3 tag : NoCommand line compressor : C:\Program Files\Exact Audio Copy\Flac\flac.exeAdditional command line options : -V -8 -T "Date=%year%" -T "Genre=%genre%" %source%
TOC of the extracted CD
Track | Start | Length | Start sector | End sector --------------------------------------------------------- 1 | 0:00.00 | 4:51.33 | 0 | 21857 2 | 4:51.33 | 6:08.07 | 21858 | 49464 3 | 10:59.40 | 2:29.05 | 49465 | 60644 4 | 13:28.45 | 2:50.30 | 60645 | 73424 5 | 16:19.00 | 4:27.33 | 73425 | 93482 6 | 20:46.33 | 3:30.42 | 93483 | 109274 7 | 24:17.00 | 2:32.70 | 109275 | 120744 8 | 26:49.70 | 3:25.28 | 120745 | 136147 9 | 30:15.23 | 1:35.52 | 136148 | 143324 10 | 31:51.00 | 2:28.48 | 143325 | 154472 11 | 34:19.48 | 6:07.25 | 154473 | 182022 12 | 40:26.73 | 3:41.57 | 182023 | 198654 13 | 44:08.55 | 4:15.10 | 198655 | 217789 14 | 48:23.65 | 4:39.10 | 217790 | 238724 15 | 53:03.00 | 2:42.28 | 238725 | 250902 16 | 55:45.28 | 3:07.35 | 250903 | 264962 17 | 58:52.63 | 2:08.10 | 264963 | 274572 18 | 61:00.73 | 5:39.52 | 274573 | 300049
Range status and errors
Selected range
Filename C:\Program Files\Exact Audio Copy\Flac\Sistine Chapel Chior - Sistine Choir in Concert At The Vatican.wav
Peak level 99.2 % Extraction speed 3.3 X Range quality 100.0 % Test CRC D6F6F371 Copy CRC D6F6F371 Copy OK
No errors occurred
AccurateRip summary
Track 1 accurately ripped (confidence 1) [7901E236] (AR v2)Track 2 accurately ripped (confidence 1) [70700D3E] (AR v2)Track 3 accurately ripped (confidence 1) [99571A75] (AR v2)Track 4 accurately ripped (confidence 1) [A59C971E] (AR v2)Track 5 accurately ripped (confidence 1) [28868A67] (AR v2)Track 6 accurately ripped (confidence 1) [75D2212D] (AR v2)Track 7 accurately ripped (confidence 1) [52E39AFD] (AR v2)Track 8 accurately ripped (confidence 1) [E5F7AAF3] (AR v2)Track 9 accurately ripped (confidence 1) [699417F9] (AR v2)Track 10 accurately ripped (confidence 1) [C7F03DA7] (AR v2)Track 11 accurately ripped (confidence 1) [E05789E8] (AR v2)Track 12 accurately ripped (confidence 1) [C2B99817] (AR v2)Track 13 accurately ripped (confidence 1) [0D828BA3] (AR v2)Track 14 accurately ripped (confidence 1) [F8AF0DD0] (AR v2)Track 15 accurately ripped (confidence 1) [A71618ED] (AR v2)Track 16 accurately ripped (confidence 1) [0AB857C3] (AR v2)Track 17 accurately ripped (confidence 1) [073DF98C] (AR v2)Track 18 accurately ripped (confidence 1) [17199653] (AR v2)
All tracks accurately ripped
End of status report
==== Log checksum 8B102C25D73A33054CBAAD05358775ECE635294C1455241F56ED02373751C801 ====
mp3
Внимание! Торрент файл перезалит 17.02.2014 в 22:17 МСК. Просьба скачать торрент заново.
[teatrix.ru].t7981.torrent 
Торрент: Зарегистрирован [ 2015-10-14 02:49 ] · 6A49B41E36A527A88BDA50A4AAC4B34AAC8AD53F

Скачать .torrent

Скачать

19 KB

Статус: проверено
Скачан: 0 раз
Размер: 228 MB
terms.php



Быстрый ответ

Имя:

      
Для отправки сообщений необходимо включить JavaScript
Показать сообщения:    

Текущее время: 11-Дек 01:25

Часовой пояс: UTC + 3


Вы можете начинать темы
Вы можете отвечать на сообщения
Вы не можете редактировать свои сообщения
Вы не можете удалять свои сообщения
Вы не можете голосовать в опросах
Вы не можете прикреплять файлы к сообщениям
Вы можете скачивать файлы