(Classical) Carl Orff - Carmina Burana / Карл Орфф - Кармина Бурана (Franz Welser-Most, солисты: Barbara Hendricks, Michael Chance, Jeffrey Black, Chorus Master: Andrew Parnell, Richard Cooke) - 1992, FLAC (image+.cue) lossless


Статистика раздачи [Обновить пиров]
Размер:  222 MB   |    Зарегистрирован:  1 год 3 месяца   |    Скачан:  0 раз

Полного источника не было: Никогда

 
   
 
 
 

[Цитировать]

Carl Orff - Carmina Burana - Franz Welser-Most
Жанр: Classical
Страна-производитель диска: Holland
Год издания диска: 1992
Издатель (лейбл): EMI Classics
Номер по каталогу: 7 54054 2
Дата записи: 1990
Аудиокодек: FLAC
Тип рипа: image+.cue
Битрейт аудио: lossless
Продолжительность: 57.44
Источник: собственный рип
Наличие сканов в содержимом раздачи: да
Треклист:
1-2 Fortuna Imperatrix Mundi 5.14
3-5 I. Primo vere 7.55
6-13 Uf dem Anger 13.39
14-17 II. In taberna 10.21
18-26 III. Cours d'amour 16.22
27 Blanziflor et Helena 1.40
28 Fortuna Imperatrix Mundi 2.32
Исполнители:
Barbara Hendricks - soprano/Sopran
Michael Chance - countertenor/Kontratenor/haute-contre
Jeffrey Black - baritone/Bariton/baryton
(22) Jeffrey Black; Gareth Roberts, Philip Daggett, Richard Day-Lewis, Simon Preece, Laurence Whitehead, Lynton Black
The Choristers of the Cathedral and Abbey Church of St. Alban
Master of the Music/Leitung/direction: Barry Rose
Chorus Master/Chorleitung/Chef des choeurs: Andrew Parnell
London Philharmonic Chorus
Chorus Master/Chorleitung/Chef des chceurs: Richard Cooke
The London Philharmonic conducted by/Dirigent/direction Franz Welser-Most

Лог создания рипа

Exact Audio Copy V1.0 beta 3 from 29. August 2011
Отчёт EAC об извлечении, выполненном 16. февраля 2014, 11:27
Carl Orff / Carmina Burana
Дисковод: TSSTcorpBDDVDW SE-506BB Adapter: 1 ID: 0
Режим чтения : ДостоверностьИспользование точного потока : ДаОтключение кэша аудио : ДаИспользование указателей C2 : Нет
Коррекция смещения при чтении : 6Способность читать области Lead-in и Lead-out : НетЗаполнение пропущенных сэмплов тишиной : ДаУдаление блоков с тишиной в начале и конце : НетПри вычислениях CRC использовались нулевые сэмплы : ДаИнтерфейс : Встроенный Win32-интерфейс для Win NT/2000
Выходной формат : Пользовательский кодировщикВыбранный битрейт : 768 kBit/sКачество : ВысокийДобавление ID3-тега : НетУтилита сжатия : E:\Program Files\audio\EAC\FLAC\FLAC.EXEДополнительные параметры : -6 -V -T "ARTIST=%artist%" -T "TITLE=%title%" -T "ALBUM=%albumtitle%" -T "DATE=%year%" -T "TRACKNUMBER=%tracknr%" -T "GENRE=%genre%" -T "COMMENT=%comment%" -T "BAND=%albuminterpret%" -T "ALBUMARTIST=%albuminterpret%" -T "COMPOSER=%composer%" %haslyrics%--tag-from-file=LYRICS="%lyricsfile%"%haslyrics% -T "DISCNUMBER=%cdnumber%" -T "TOTALDISCS=%totalcds%" -T "TOTALTRACKS=%numtracks%" %hascover%--picture="%coverfile%"%hascover% %source% -o %dest%
TOC извлечённого CD
Трек | Старт | Длительность | Начальный сектор | Конечный сектор --------------------------------------------------------------------- 1 | 0:00.33 | 2:27.42 | 33 | 11099 2 | 2:28.00 | 2:46.68 | 11100 | 23617 3 | 5:14.68 | 3:25.52 | 23618 | 39044 4 | 8:40.45 | 2:00.50 | 39045 | 48094 5 | 10:41.20 | 2:28.65 | 48095 | 59259 6 | 13:10.10 | 1:44.70 | 59260 | 67129 7 | 14:55.05 | 3:04.45 | 67130 | 80974 8 | 17:59.50 | 3:15.60 | 80975 | 95659 9 | 21:15.35 | 1:58.18 | 95660 | 104527 10 | 23:13.53 | 0:30.57 | 104528 | 106834 11 | 23:44.35 | 1:39.20 | 106835 | 114279 12 | 25:23.55 | 0:31.55 | 114280 | 116659 13 | 25:55.35 | 0:53.65 | 116660 | 120699 14 | 26:49.25 | 2:21.65 | 120700 | 131339 15 | 29:11.15 | 3:32.73 | 131340 | 147312 16 | 32:44.13 | 1:29.40 | 147313 | 154027 17 | 34:13.53 | 2:56.47 | 154028 | 167274 18 | 37:10.25 | 2:53.15 | 167275 | 180264 19 | 40:03.40 | 2:35.63 | 180265 | 191952 20 | 42:39.28 | 1:49.07 | 191953 | 200134 21 | 44:28.35 | 2:09.08 | 200135 | 209817 22 | 46:37.43 | 0:56.62 | 209818 | 214079 23 | 47:34.30 | 0:56.70 | 214080 | 218349 24 | 48:31.25 | 2:08.08 | 218350 | 227957 25 | 50:39.33 | 2:18.17 | 227958 | 238324 26 | 52:57.50 | 0:34.60 | 238325 | 240934 27 | 53:32.35 | 1:40.40 | 240935 | 248474 28 | 55:13.00 | 2:31.73 | 248475 | 259872
Характеристики диапазона извлечения и сообщения об ошибках
Выбранный диапазон
Имя файла M:\_Music\Classics\Carl Orff - Carmina Burana - Welser-Most - CD (1990)\Carl Orff - Carmina Burana.wav
Пиковый уровень 100.0 % Скорость извлечения 2.0 X Качество диапазона 100.0 % CRC копии CCD253FF Копирование... OK
Ошибок не произошло
AccurateRip: сводка
Трек 1 : извлечено точно (доверие 31) [6B5F6D1C] (AR v2)Трек 2 : извлечено точно (доверие 31) [AB129617] (AR v2)Трек 3 : извлечено точно (доверие 31) [84D73010] (AR v2)Трек 4 : извлечено точно (доверие 31) [00B3BE0F] (AR v2)Трек 5 : извлечено точно (доверие 31) [8FB5752D] (AR v2)Трек 6 : извлечено точно (доверие 31) [E71A9289] (AR v2)Трек 7 : извлечено точно (доверие 31) [314074F2] (AR v2)Трек 8 : извлечено точно (доверие 31) [A1866A63] (AR v2)Трек 9 : извлечено точно (доверие 31) [1E0FB7F4] (AR v2)Трек 10 : извлечено точно (доверие 31) [D5E46C78] (AR v2)Трек 11 : извлечено точно (доверие 31) [41A2AF67] (AR v2)Трек 12 : извлечено точно (доверие 31) [CE435979] (AR v2)Трек 13 : извлечено точно (доверие 31) [3D37178E] (AR v2)Трек 14 : извлечено точно (доверие 31) [C079192D] (AR v2)Трек 15 : извлечено точно (доверие 31) [D55C11AD] (AR v2)Трек 16 : извлечено точно (доверие 31) [24B8A4EC] (AR v2)Трек 17 : извлечено точно (доверие 30) [59B69A36] (AR v2)Трек 18 : извлечено точно (доверие 31) [82981095] (AR v2)Трек 19 : извлечено точно (доверие 30) [83E16388] (AR v2)Трек 20 : извлечено точно (доверие 31) [71789B5A] (AR v2)Трек 21 : извлечено точно (доверие 31) [E32B3194] (AR v2)Трек 22 : извлечено точно (доверие 31) [A653B5FC] (AR v2)Трек 23 : извлечено точно (доверие 31) [35B6409F] (AR v2)Трек 24 : извлечено точно (доверие 31) [3231806F] (AR v2)Трек 25 : извлечено точно (доверие 30) [1D4C4846] (AR v2)Трек 26 : извлечено точно (доверие 30) [3A22745B] (AR v2)Трек 27 : извлечено точно (доверие 30) [EEEE6D20] (AR v2)Трек 28 : извлечено точно (доверие 30) [FD143EA0] (AR v2)
Все треки извлечены точно
Конец отчёта

Содержание индексной карты (.CUE)

REM GENRE ClassicalREM DATE 1992REM DISCID 890D881CREM COMMENT "ExactAudioCopy v1.0b3"PERFORMER "Carl Orff"TITLE "Carmina Burana"FILE "Carl Orff - Carmina Burana.flac" WAVE TRACK 01 AUDIO TITLE "O Fortuna" PERFORMER "Carl Orff" INDEX 00 00:00:00 INDEX 01 00:00:33 TRACK 02 AUDIO TITLE "Fortune plango vulnera" PERFORMER "Carl Orff" INDEX 00 02:27:73 INDEX 01 02:28:00 TRACK 03 AUDIO TITLE "Veris leta facies" PERFORMER "Carl Orff" INDEX 00 05:14:65 INDEX 01 05:14:68 TRACK 04 AUDIO TITLE "Omina Sol temperat" PERFORMER "Carl Orff" INDEX 00 08:40:43 INDEX 01 08:40:45 TRACK 05 AUDIO TITLE "Ecce gratum" PERFORMER "Carl Orff" INDEX 00 10:41:18 INDEX 01 10:41:20 TRACK 06 AUDIO TITLE "Tanz" PERFORMER "Carl Orff" INDEX 00 13:10:08 INDEX 01 13:10:10 TRACK 07 AUDIO TITLE "Floret silva" PERFORMER "Carl Orff" INDEX 00 14:55:03 INDEX 01 14:55:05 TRACK 08 AUDIO TITLE "Chramer, gip die varwe mir" PERFORMER "Carl Orff" INDEX 00 17:59:48 INDEX 01 17:59:50 TRACK 09 AUDIO TITLE "Reie" PERFORMER "Carl Orff" INDEX 00 21:15:33 INDEX 01 21:15:35 TRACK 10 AUDIO TITLE "Swaz hie gat umbe" PERFORMER "Carl Orff" INDEX 00 23:13:50 INDEX 01 23:13:53 TRACK 11 AUDIO TITLE "Chume, chum geselle min" PERFORMER "Carl Orff" INDEX 00 23:44:33 INDEX 01 23:44:35 TRACK 12 AUDIO TITLE "Swaz hie gat umbe (2)" PERFORMER "Carl Orff" INDEX 00 25:23:53 INDEX 01 25:23:55 TRACK 13 AUDIO TITLE "Were diu werit alle min" PERFORMER "Carl Orff" INDEX 00 25:55:33 INDEX 01 25:55:35 TRACK 14 AUDIO TITLE "Estuans interius" PERFORMER "Carl Orff" INDEX 00 26:49:23 INDEX 01 26:49:25 TRACK 15 AUDIO TITLE "Olim lacus colueram" PERFORMER "Carl Orff" INDEX 00 29:11:13 INDEX 01 29:11:15 TRACK 16 AUDIO TITLE "Ego sum abbas" PERFORMER "Carl Orff" INDEX 00 32:44:10 INDEX 01 32:44:13 TRACK 17 AUDIO TITLE "In taberna quando sumus" PERFORMER "Carl Orff" INDEX 00 34:13:50 INDEX 01 34:13:53 TRACK 18 AUDIO TITLE "Amor volat undique" PERFORMER "Carl Orff" INDEX 00 37:10:23 INDEX 01 37:10:25 TRACK 19 AUDIO TITLE "Dies, nox et omnia" PERFORMER "Carl Orff" INDEX 00 40:03:38 INDEX 01 40:03:40 TRACK 20 AUDIO TITLE "Stetit puella" PERFORMER "Carl Orff" INDEX 00 42:39:25 INDEX 01 42:39:28 TRACK 21 AUDIO TITLE "Circa mea pectora" PERFORMER "Carl Orff" INDEX 00 44:28:33 INDEX 01 44:28:35 TRACK 22 AUDIO TITLE "Si puer cum puellula" PERFORMER "Carl Orff" INDEX 00 46:37:40 INDEX 01 46:37:43 TRACK 23 AUDIO TITLE "Veni, veni, venias" PERFORMER "Carl Orff" INDEX 00 47:34:28 INDEX 01 47:34:30 TRACK 24 AUDIO TITLE "In trutina" PERFORMER "Carl Orff" INDEX 00 48:31:23 INDEX 01 48:31:25 TRACK 25 AUDIO TITLE "Tempus est iocundum" PERFORMER "Carl Orff" INDEX 00 50:39:30 INDEX 01 50:39:33 TRACK 26 AUDIO TITLE "Dulcissime" PERFORMER "Carl Orff" INDEX 00 52:57:48 INDEX 01 52:57:50 TRACK 27 AUDIO TITLE "Ave formosissima" PERFORMER "Carl Orff" INDEX 00 53:32:33 INDEX 01 53:32:35 TRACK 28 AUDIO TITLE "O Fortuna (2)" PERFORMER "Carl Orff" INDEX 00 55:12:73 INDEX 01 55:13:00
[teatrix.ru].t7982.torrent 
Торрент: Зарегистрирован [ 2015-10-14 02:49 ] · D4EC2F4B16DA5F305DEA731DC2575AEDCD36141D

Скачать .torrent

Скачать

19 KB

Статус: проверено
Скачан: 0 раз
Размер: 222 MB
terms.php



Быстрый ответ

Имя:

      
Для отправки сообщений необходимо включить JavaScript
Показать сообщения:    

Текущее время: 18-Янв 00:22

Часовой пояс: UTC + 3


Вы можете начинать темы
Вы можете отвечать на сообщения
Вы не можете редактировать свои сообщения
Вы не можете удалять свои сообщения
Вы не можете голосовать в опросах
Вы не можете прикреплять файлы к сообщениям
Вы можете скачивать файлы