(Mass) John Rutter - Requiem and Other Sacred Music [Advent Anthem, Anthem For Double Choir, Anthem For Choir And Flute, Two Blessings, Two Organ Pieces] (Choir Of Clare College Cambridge, Rimmer, Collon, Brown) - 2003, FLAC (image+.cue) lossless


Статистика раздачи [Обновить пиров]
Размер:  244 MB   |    Зарегистрирован:  1 год 1 месяц   |    Скачан:  2 раза

Полного источника не было: 1 месяц 2 дня

 
   
 
 
 

[Цитировать]

John Rutter - Requiem and Other Sacred Music
Choir Of Clare College Cambridge, Timothy Brown
Жанр: Mass, Sacred
Страна-производитель диска: EC
Год издания диска: 2003
Издатель (лейбл): Naxos
Номер по каталогу: 8.557130
Дата записи: 2002
Аудиокодек: FLAC
Тип рипа: image+.cue
Битрейт аудио: lossless
Продолжительность: 68:54
Источник: собственный рип
Наличие сканов в содержимом раздачи: да
Треклист:
Requiem
1 Requiem Aeternam 5:34
2 Out Of The Deep 6:06
3 Pie Jesu 3:36
4 Sanctus 2:04
5 Agnus Dei 5:22
6 The Lord Is My Sheperd 5:03
7 Lux Aeterna 6:39
Advent Anthem For Choir And Organ
8 Aris, Shine 4:40
Anthem For Double Choir
9 Come Down, O Love Divine 6:51
Anthem For Choir And Flute
10 Musica Dei Donum 5:50
Two Blessings For Choir And Organ
11 A Clare Benediction 3:30
12 Go Forth Into The World In Peace 2:42
Two Organ Pieces
13 Toccata In 7 2:06
14 Variations On An Easter Theme 7:45
Исполнители:
Choir Of Clare College Cambridge
Members Of City Of London Sinfonia
Nicholas Rimmer, Nicholas Collon (tracks: 14) - organ
Timothy Brown - conductor

Лог создания рипа

Exact Audio Copy V1.0 beta 3 from 29. August 2011
EAC extraction logfile from 22. January 2014, 16:57
Choir of Clare college Cambridge Timothy Brown / Requiem (and other Sacred Music) John Rutter
Used drive : TSSTcorp CDDVDW Adapter: 0 ID: 0
Read mode : SecureUtilize accurate stream : YesDefeat audio cache : YesMake use of C2 pointers : No
Read offset correction : 6Overread into Lead-In and Lead-Out : NoFill up missing offset samples with silence : YesDelete leading and trailing silent blocks : NoNull samples used in CRC calculations : YesUsed interface : Installed external ASPI interface
Used output format : User Defined EncoderSelected bitrate : 768 kBit/sQuality : HighAdd ID3 tag : NoCommand line compressor : C:\Program Files (x86)\Exact Audio Copy\FLAC\FLAC.EXEAdditional command line options : -6 -V -T "ARTIST=%artist%" -T "TITLE=%title%" -T "ALBUM=%albumtitle%" -T "DATE=%year%" -T "TRACKNUMBER=%tracknr%" -T "GENRE=%genre%" -T "COMMENT=%comment%" -T "BAND=%albuminterpret%" -T "ALBUMARTIST=%albuminterpret%" -T "COMPOSER=%composer%" %haslyrics%--tag-from-file=LYRICS="%lyricsfile%"%haslyrics% -T "DISCNUMBER=%cdnumber%" -T "TOTALDISCS=%totalcds%" -T "TOTALTRACKS=%numtracks%" %hascover%--picture="%coverfile%"%hascover% %source% -o %dest%
TOC of the extracted CD
Track | Start | Length | Start sector | End sector --------------------------------------------------------- 1 | 0:00.00 | 5:34.35 | 0 | 25084 2 | 5:34.35 | 6:09.02 | 25085 | 52761 3 | 11:43.37 | 3:36.08 | 52762 | 68969 4 | 15:19.45 | 2:04.52 | 68970 | 78321 5 | 17:24.22 | 6:18.18 | 78322 | 106689 6 | 23:42.40 | 5:08.15 | 106690 | 129804 7 | 28:50.55 | 6:42.02 | 129805 | 159956 8 | 35:32.57 | 4:36.50 | 159957 | 180706 9 | 40:09.32 | 6:52.25 | 180707 | 211631 10 | 47:01.57 | 5:51.38 | 211632 | 237994 11 | 52:53.20 | 3:29.70 | 237995 | 253739 12 | 56:23.15 | 2:45.57 | 253740 | 266171 13 | 59:08.72 | 2:03.70 | 266172 | 275466 14 | 61:12.67 | 7:41.10 | 275467 | 310051
Range status and errors
Selected range
Filename C:\RIP\Rutter - Requiem.wav
Peak level 99.9 % Extraction speed 3.3 X Range quality 100.0 % Test CRC AA13D6C9 Copy CRC AA13D6C9 Copy OK
No errors occurred
AccurateRip summary
Track 1 accurately ripped (confidence 13) [A8471C4D] (AR v2)Track 2 accurately ripped (confidence 13) [CBB9676B] (AR v2)Track 3 accurately ripped (confidence 13) [82710985] (AR v2)Track 4 accurately ripped (confidence 13) [FDD3DE96] (AR v2)Track 5 accurately ripped (confidence 13) [F6BF0AAB] (AR v2)Track 6 accurately ripped (confidence 13) [70329D79] (AR v2)Track 7 accurately ripped (confidence 13) [754BBEC6] (AR v2)Track 8 accurately ripped (confidence 13) [DE8C594C] (AR v2)Track 9 accurately ripped (confidence 13) [463BA9EF] (AR v2)Track 10 accurately ripped (confidence 13) [3ED363D2] (AR v2)Track 11 accurately ripped (confidence 13) [A7A9055C] (AR v2)Track 12 accurately ripped (confidence 13) [7FEFAA12] (AR v2)Track 13 accurately ripped (confidence 13) [98209C68] (AR v2)Track 14 accurately ripped (confidence 13) [81ECE50E] (AR v2)
All tracks accurately ripped
End of status report
==== Log checksum 5D99CF64422DAEC2BB3D5A96FCEF841EA04A52D84B2087194DBB1BDB263D1B7C ====

Доп. информация

This is a more intimate version of John Rutter's Requiem, which uses smaller ensembles, enhancing the sense of reassurance that the music and the text offer. Rutter's music is almost always warmly tonal, built with a simplicity in its textures that descends from the tradition of Vaughan Williams. Here, frequently only one or two instruments are used for accompaniment. This, when added to his use of unison voices or only one or two sections of the choir, and his avoidance of extreme animation, is what makes the music so uncomplicated, and, therefore, comforting. The darkest moments of this work, in the Agnus Dei, are not frighteningly dark, but rather, shadowed, and those shadows disappear by the end of the movement. The small Clare College Choir lives up to its name, particularly the soloist, Elin Manahan Thomas. Her voice has a clear, pure sound, with very little vibrato, and she perfectly intones the highest of notes. The London Sinfonietta, reduced to just six musicians here, has recorded the Requiem before, so it is familiar with Rutter's intentions for the work. The anthems and benedictions that follow the Requiem are similarly written with unpretentious, easy appeal, the music matching the spirit of the texts. The disc is filled out with two attractive organ pieces by Rutter, a rare glimpse at his instrumental music. The Toccata is festive in its irregular meter, while the Variations on an Easter Theme are interesting for the countermelodies and filigree that are woven around the melody.
(c) Patsy Morita, Allmusic
[teatrix.ru].t7983.torrent 
Торрент: Зарегистрирован [ 2015-10-14 02:49 ] · 5F1C0AB4A11E8743B42F82A00F29D52382C96968

Скачать .torrent

Скачать

20 KB

Статус: проверено
Скачан: 2 раз
Размер: 244 MB
terms.php



Быстрый ответ

Имя:

      
Для отправки сообщений необходимо включить JavaScript
Показать сообщения:    

Текущее время: 07-Дек 21:25

Часовой пояс: UTC + 3


Вы можете начинать темы
Вы можете отвечать на сообщения
Вы не можете редактировать свои сообщения
Вы не можете удалять свои сообщения
Вы не можете голосовать в опросах
Вы не можете прикреплять файлы к сообщениям
Вы можете скачивать файлы