(Classical) Перголези / Pergolesi - Stabat Mater; Вивальди / Vivaldi - Gloria in D major, RV 589; Скарлатти / Scarlatti - Messa di Santa Cecilia (Timothy Brown; Pieter Jan Leusink; Maurice de Abravanel) - 2001, FLAC (image+.cue) lossless


Статистика раздачи [Обновить пиров]
Размер:  569 MB   |    Зарегистрирован:  1 год 1 месяц   |    Скачан:  0 раз

Полного источника не было: Никогда

 
   
 
 
 

[Цитировать]

Pergolesi- Stabat Mater; Vivaldi- Gloria in D major, RV 589; Scarlatti- Messa di Santa Cecilia (Timothy Brown; Pieter Jan Leusink; Maurice de Abravanel)
Жанр: Classical
Год издания диска: 2001
Издатель (лейбл): Brilliant Classics
Номер по каталогу: 99289
Аудиокодек: FLAC
Тип рипа: image+.cue
Битрейт аудио: lossless
Продолжительность: CD1`63:50, CD2`54:07
Источник: собственный рип
Наличие сканов в содержимом раздачи: да
Треклист:
CD1 - Pergolesi-Stabat Mater;
Giovanni Battista Pergolesi (1710-1736)
Pergolesi- Stabat mater dolorosa;
1. Stabat mater dolorosa (3:45)
2. Cujus animam gementem (1:57)
3. O quam tristis et afflicta (2:13)
4. Quae moerebat et dolebat (2:04)
5. Quis est homo, qui non fleret (2:41)
6. Vidit suum dulcem natum (3:03)
7. Eja mater fons amoris (2:29)
8. Fac, ut ardeat cor meum (2:11)
9. Sancta mater, istud agas (5:23)
10. Fac ut portem christi mortem (3:44)
11. Inflammatus et accensus (1:59)
12. Quando corpus morietur (3:48)
Antonio Vivaldi (1678-1741)
Vivaldi- Gloria in D major, RV 589;
13. Gloria in excelsis deo (2:16)
14. Et in terra pax hominibus (5:00)
15. Laudamus te (2:08)
16. Gratias agimus (0:24)
17. Propter magnam gloriam (0:54)
18. Domine deus (4:10)
19. Fomine fili unigenite (2:10)
20. Domine deus, agnus dei (4:35)
21. Qui tollis peccata mundi (0:59)
22. Qui sedes ad dexteram patris (2:19)
23. Quoniam tu solus sanctus (0:44)
24. Com sancto spiritu (2:44)
CD2 - Scarlatti- Messa di Santa Cecilia
Alessandro Scarlatti (1660-1725)
Scarlatti- Messa di Santa Cecilia in A major;
1. Kyrie (8:15)
2. Gloria (23:37)
3. Credo (14:27)
4. Sanctus (1:59)
5. Agnus dei (5:47)
Исполнители:
Pergolesi performed by:
Angharad Gruffydd Jone, soprano
Lawrence Zazzo, alto
The Cambridge Ensemble.
Timothy Brown
Vivaldi performed by:
Maja Roodveldt, soprano
Sytse Buwalda, alto
Holland Boys Choir
& Baroque Orchestra,
Pieter Jan Leusink
Scarlatti performed by:
Blanche Christensen, soprano
Jean Preston, soprano
Beryl Jensen Smiley, alto
Ronald Christensen, tenor
Warren Wood, bass
University of Utah Chorus
Utah Symphony Orchestra
Maurice de Abravanel

LOG EAC

CD 1

Exact Audio Copy V1.0 beta 3 from 29. August 2011
EAC extraction logfile from 26. January 2014, 10:33
Pergolesi; Vivaldi / CD1 - Pergolesi-Stabat Mater; Vivaldi-Gloria
Used drive : ATAPI iHAS122 C Adapter: 0 ID: 1
Read mode : Secure
Utilize accurate stream : Yes
Defeat audio cache : Yes
Make use of C2 pointers : No
Read offset correction : 6
Overread into Lead-In and Lead-Out : No
Fill up missing offset samples with silence : Yes
Delete leading and trailing silent blocks : No
Null samples used in CRC calculations : Yes
Used interface : Installed external ASPI interface
Used output format : User Defined Encoder
Selected bitrate : 192 kBit/s
Quality : High
Add ID3 tag : No
Command line compressor : C:\Program Files\Exact Audio Copy\Flac\flac.exe
Additional command line options : -V -8 -T "Date=%year%" -T "Genre=%genre%" %source%
TOC of the extracted CD
Track | Start | Length | Start sector | End sector
---------------------------------------------------------
1 | 0:01.00 | 3:45.26 | 75 | 16975
2 | 3:46.26 | 1:57.04 | 16976 | 25754
3 | 5:43.30 | 2:13.26 | 25755 | 35755
4 | 7:56.56 | 2:04.10 | 35756 | 45065
5 | 10:00.66 | 2:41.56 | 45066 | 57196
6 | 12:42.47 | 3:03.00 | 57197 | 70921
7 | 15:45.47 | 2:29.74 | 70922 | 82170
8 | 18:15.46 | 2:11.66 | 82171 | 92061
9 | 20:27.37 | 5:23.38 | 92062 | 116324
10 | 25:51.00 | 3:44.21 | 116325 | 133145
11 | 29:35.21 | 1:59.27 | 133146 | 142097
12 | 31:34.48 | 3:48.25 | 142098 | 159222
13 | 35:22.73 | 2:16.07 | 159223 | 169429
14 | 37:39.05 | 5:00.11 | 169430 | 191940
15 | 42:39.16 | 2:08.08 | 191941 | 201548
16 | 44:47.24 | 0:24.08 | 201549 | 203356
17 | 45:11.32 | 0:54.68 | 203357 | 207474
18 | 46:06.25 | 4:10.24 | 207475 | 226248
19 | 50:16.49 | 2:10.25 | 226249 | 236023
20 | 52:26.74 | 4:35.62 | 236024 | 256710
21 | 57:02.61 | 0:59.46 | 256711 | 261181
22 | 58:02.32 | 2:19.38 | 261182 | 271644
23 | 60:21.70 | 0:44.11 | 271645 | 274955
24 | 61:06.06 | 2:44.38 | 274956 | 287293
Range status and errors
Selected range
Filename C:\Program Files\Exact Audio Copy\Flac\CD1 - Pergolesi-Stabat Mater; Vivaldi-Gloria.wav
Peak level 98.7 %
Extraction speed 9.0 X
Range quality 100.0 %
Test CRC 394A00D2
Copy CRC 394A00D2
Copy OK
No errors occurred
AccurateRip summary
Track 1 accurately ripped (confidence 5) [C1EFD445] (AR v1)
Track 2 accurately ripped (confidence 5) [8AA8893D] (AR v1)
Track 3 accurately ripped (confidence 5) [87958195] (AR v1)
Track 4 accurately ripped (confidence 5) [43B7D16C] (AR v1)
Track 5 accurately ripped (confidence 5) [255F16F2] (AR v1)
Track 6 accurately ripped (confidence 5) [CD53AAF5] (AR v1)
Track 7 accurately ripped (confidence 5) [185649DA] (AR v1)
Track 8 accurately ripped (confidence 5) [5412E032] (AR v1)
Track 9 accurately ripped (confidence 5) [6944EB02] (AR v1)
Track 10 accurately ripped (confidence 5) [1107C068] (AR v1)
Track 11 accurately ripped (confidence 5) [03B1F0C7] (AR v1)
Track 12 accurately ripped (confidence 5) [E9FB2E2F] (AR v1)
Track 13 accurately ripped (confidence 5) [50C5B5BA] (AR v1)
Track 14 accurately ripped (confidence 5) [8E53ECE2] (AR v1)
Track 15 accurately ripped (confidence 5) [7BA66E98] (AR v1)
Track 16 accurately ripped (confidence 5) [C51A3F17] (AR v1)
Track 17 accurately ripped (confidence 5) [82A77729] (AR v1)
Track 18 accurately ripped (confidence 5) [8E9A6705] (AR v1)
Track 19 accurately ripped (confidence 5) [DD00BFDB] (AR v1)
Track 20 accurately ripped (confidence 5) [D042B557] (AR v1)
Track 21 accurately ripped (confidence 5) [574C8119] (AR v1)
Track 22 accurately ripped (confidence 5) [B488513C] (AR v1)
Track 23 accurately ripped (confidence 5) [55B7021D] (AR v1)
Track 24 accurately ripped (confidence 5) [70B56D10] (AR v1)
All tracks accurately ripped
End of status report
==== Log checksum 91C852D06CE27A8E724FAD7B188FD3A97372F267D7302B83DD9CAEA4B9EFECD6 ====

CD 2

Exact Audio Copy V1.0 beta 3 from 29. August 2011
EAC extraction logfile from 26. January 2014, 10:49
Scarlatti / CD2 - Scarlatti- Messa di Santa Cecilia
Used drive : ATAPI iHAS122 C Adapter: 0 ID: 1
Read mode : Secure
Utilize accurate stream : Yes
Defeat audio cache : Yes
Make use of C2 pointers : No
Read offset correction : 6
Overread into Lead-In and Lead-Out : No
Fill up missing offset samples with silence : Yes
Delete leading and trailing silent blocks : No
Null samples used in CRC calculations : Yes
Used interface : Installed external ASPI interface
Used output format : User Defined Encoder
Selected bitrate : 192 kBit/s
Quality : High
Add ID3 tag : No
Command line compressor : C:\Program Files\Exact Audio Copy\Flac\flac.exe
Additional command line options : -V -8 -T "Date=%year%" -T "Genre=%genre%" %source%
TOC of the extracted CD
Track | Start | Length | Start sector | End sector
---------------------------------------------------------
1 | 0:00.33 | 8:15.37 | 33 | 37194
2 | 8:15.70 | 23:37.23 | 37195 | 143492
3 | 31:53.18 | 14:27.65 | 143493 | 208582
4 | 46:21.08 | 1:59.20 | 208583 | 217527
5 | 48:20.28 | 5:47.05 | 217528 | 243557
Range status and errors
Selected range
Filename C:\Program Files\Exact Audio Copy\Flac\CD2 - Scarlatti- Messa di Santa Cecilia.wav
Peak level 83.2 %
Extraction speed 8.8 X
Range quality 100.0 %
Test CRC D1208B7B
Copy CRC D1208B7B
Copy OK
No errors occurred
AccurateRip summary
Track 1 accurately ripped (confidence 6) [F1E47921] (AR v1)
Track 2 accurately ripped (confidence 6) [8043918D] (AR v1)
Track 3 accurately ripped (confidence 6) [8FABB83E] (AR v1)
Track 4 accurately ripped (confidence 6) [B2796766] (AR v1)
Track 5 accurately ripped (confidence 6) [5256EFD0] (AR v1)
All tracks accurately ripped
End of status report
==== Log checksum 422CD296CCCB344807DC85FE97819FDB46F6B37DDA7047F54526134EF762EF55 ====
[teatrix.ru].t7984.torrent 
Торрент: Зарегистрирован [ 2015-10-14 02:49 ] · 45850971E69E0A2B6E2E075553B703EE9BAC7A4A

Скачать .torrent

Скачать

12 KB

Статус: проверено
Скачан: 0 раз
Размер: 569 MB
terms.php



Быстрый ответ

Имя:

      
Для отправки сообщений необходимо включить JavaScript
Показать сообщения:    

Текущее время: 07-Дек 13:39

Часовой пояс: UTC + 3


Вы можете начинать темы
Вы можете отвечать на сообщения
Вы не можете редактировать свои сообщения
Вы не можете удалять свои сообщения
Вы не можете голосовать в опросах
Вы не можете прикреплять файлы к сообщениям
Вы можете скачивать файлы