(Sacred Music, Vocal, Gregorian) Diego Ortiz (Диего Ортис) (1510-1570) - Ad Vesperas (Cantar Lontano - Marco Mencoboni) - 2006, FLAC (tracks+.cue) lossless


Статистика раздачи [Обновить пиров]
Размер:  363 MB   |    Зарегистрирован:  1 год 3 месяца   |    Скачан:  0 раз

Полного источника не было: 2 месяца 3 дня

 
   
 
 
 

[Цитировать]

Diego Ortiz (1510-1570) - Ad Vesperas in omnibus festivitatibus beatae Mariae Napoli,1565
(Cantar Lontano - Marco Mencoboni)

Жанр: Sacred Music; Vocal
Страна-производитель диска: France
Год издания диска: 2006
Издатель (лейбл): Alpha Productions
Номер по каталогу: Alpha 108
Дата записи: 2005
Аудиокодек: FLAC
Тип рипа: tracks+.cue
Битрейт аудио: lossless
Продолжительность: 1:09:54
Источник: DC++
Наличие сканов в содержимом раздачи: да
Треклист:
1. Deus in auditorium
2. Ave Maria
3. Dixit Dominus
4. Beata es Virgo
5. In Odorem unguentorum
6. Confitebor
7. Dignare me laudare te
8. Cum esse parvula
9. Beatus Vir
10. Ave maria caelorum
11. Speciosa facta es
12. Laudate Pueri
13. Benedicta es celorum
14. Beata Mater
15. Laudate Dominum
16. Regina coeli
17. Ab initio et ante saecula
18. Ave Maris Stellla
19. Dignare me
20. Beatam me dicem
21. Concede nos famulos
22. Beatam me dicem
23. Concede nos famulos
24. Benedicamus Domino
25. Salve Regina
Исполнители:
Ensemble: Cantar Lontano
Direction: Marco Mencoboni
Доп. информация: SACD rip
Recorded between 28 June and 1 August, 2005 at Church of San Marco Evangelista de Castelbellino, Ancona, Italy

Лог создания рипа

EAC extraction logfile from 15. April 2007, 21:11 for CDCantar Lontano, Marco Mencoboni / Diego Ortiz_AD VESPERAS
Used drive : HL-DT-STDVDRAM GSA-4165B Adapter: 0 ID: 1Read mode : Secure with NO C2, accurate stream, disable cacheRead offset correction : 667Overread into Lead-In and Lead-Out : No
Used output format : C:\Archivos de programa\FLAC\flac.exe (User Defined Encoder)
Other options : Fill up missing offset samples with silence : Yes Delete leading and trailing silent blocks : No Installed external ASPI interface
Range status and errorsSelected range Filename G:\SonusTerrae Publicaciones\Cantar Lontano, Marco Mencoboni - AD VESPERAS.wav
Peak level 96.3 % Range quality 100.0 % CRC 2AF8CAA2 Copy OK
No errors occured
End of status report

Содержание индексной карты (.CUE)

PERFORMER "Cantar Lontano, Marco Mencoboni"TITLE "Diego Ortiz_AD VESPERAS"FILE "01 Deus in adiutorium.flac" WAVE TRACK 01 AUDIO FLAGS DCP TITLE "Deus in adiutorium" PERFORMER "Cantar Lontano, Marco Mencoboni" INDEX 01 00:00:00FILE "02 Ave Maria.flac" WAVE TRACK 02 AUDIO FLAGS DCP TITLE "Ave Maria" PERFORMER "Cantar Lontano, Marco Mencoboni" INDEX 01 00:00:00FILE "03 Dixit Dominus - Diego Ortiz.flac" WAVE TRACK 03 AUDIO FLAGS DCP TITLE "Dixit Dominus - Diego Ortiz" PERFORMER "Cantar Lontano, Marco Mencoboni" INDEX 01 00:00:00FILE "04 Beata es Virgo - Diego Ortiz.flac" WAVE TRACK 04 AUDIO FLAGS DCP TITLE "Beata es Virgo - Diego Ortiz" PERFORMER "Cantar Lontano, Marco Mencoboni" INDEX 01 00:00:00FILE "05 In Odorem unguentorum.flac" WAVE TRACK 05 AUDIO FLAGS DCP TITLE "In Odorem unguentorum" PERFORMER "Cantar Lontano, Marco Mencoboni" INDEX 01 00:00:00FILE "06 Confitebor - Diego Ortiz.flac" WAVE TRACK 06 AUDIO FLAGS DCP TITLE "Confitebor - Diego Ortiz" PERFORMER "Cantar Lontano, Marco Mencoboni" INDEX 01 00:00:00FILE "07 Dignare me laudare te - Diego Ortiz.flac" WAVE TRACK 07 AUDIO FLAGS DCP TITLE "Dignare me laudare te - Diego Ortiz" PERFORMER "Cantar Lontano, Marco Mencoboni" INDEX 01 00:00:00FILE "08 Cum esse parvula.flac" WAVE TRACK 08 AUDIO FLAGS DCP TITLE "Cum esse parvula" PERFORMER "Cantar Lontano, Marco Mencoboni" INDEX 01 00:00:00FILE "09 Beatus Vir - Diego Ortiz.flac" WAVE TRACK 09 AUDIO FLAGS DCP TITLE "Beatus Vir - Diego Ortiz" PERFORMER "Cantar Lontano, Marco Mencoboni" INDEX 01 00:00:00FILE "10 Ave regina coelorum - Diego Ortiz.flac" WAVE TRACK 10 AUDIO FLAGS DCP TITLE "Ave regina coelorum - Diego Ortiz" PERFORMER "Cantar Lontano, Marco Mencoboni" INDEX 01 00:00:00FILE "11 Speciosa facta es.flac" WAVE TRACK 11 AUDIO FLAGS DCP TITLE "Speciosa facta es" PERFORMER "Cantar Lontano, Marco Mencoboni" INDEX 01 00:00:00FILE "12 Laudate Pueri - Diego Ortiz.flac" WAVE TRACK 12 AUDIO FLAGS DCP TITLE "Laudate Pueri - Diego Ortiz" PERFORMER "Cantar Lontano, Marco Mencoboni" INDEX 01 00:00:00FILE "13 Benedicta es celorum - Diego Ortiz.flac" WAVE TRACK 13 AUDIO FLAGS DCP TITLE "Benedicta es celorum - Diego Ortiz" PERFORMER "Cantar Lontano, Marco Mencoboni" INDEX 01 00:00:00FILE "14 Beata Mater.flac" WAVE TRACK 14 AUDIO FLAGS DCP TITLE "Beata Mater" PERFORMER "Cantar Lontano, Marco Mencoboni" INDEX 01 00:00:00FILE "15 Laudate Dominum - Diego Ortiz.flac" WAVE TRACK 15 AUDIO FLAGS DCP TITLE "Laudate Dominum - Diego Ortiz" PERFORMER "Cantar Lontano, Marco Mencoboni" INDEX 01 00:00:00FILE "16 Regina coeli - Diego Ortiz.flac" WAVE TRACK 16 AUDIO FLAGS DCP TITLE "Regina coeli - Diego Ortiz" PERFORMER "Cantar Lontano, Marco Mencoboni" INDEX 01 00:00:00FILE "17 Ab initio et ante saecula.flac" WAVE TRACK 17 AUDIO FLAGS DCP TITLE "Ab initio et ante saecula" PERFORMER "Cantar Lontano, Marco Mencoboni" INDEX 01 00:00:00FILE "18 Ave Maris Stella - Diego Ortiz.flac" WAVE TRACK 18 AUDIO FLAGS DCP TITLE "Ave Maris Stella - Diego Ortiz" PERFORMER "Cantar Lontano, Marco Mencoboni" INDEX 01 00:00:00FILE "19 Dignare me.flac" WAVE TRACK 19 AUDIO FLAGS DCP TITLE "Dignare me" PERFORMER "Cantar Lontano, Marco Mencoboni" INDEX 01 00:00:00FILE "20 Beatam me dicent.flac" WAVE TRACK 20 AUDIO FLAGS DCP TITLE "Beatam me dicent" PERFORMER "Cantar Lontano, Marco Mencoboni" INDEX 01 00:00:00FILE "21 Magnificat, octavi toni - Diego Ortiz.flac" WAVE TRACK 21 AUDIO FLAGS DCP TITLE "Magnificat, octavi toni - Diego Ortiz" PERFORMER "Cantar Lontano, Marco Mencoboni" INDEX 01 00:00:00FILE "22 Beatam me dicent.flac" WAVE TRACK 22 AUDIO FLAGS DCP TITLE "Beatam me dicent" PERFORMER "Cantar Lontano, Marco Mencoboni" INDEX 01 00:00:00FILE "23 Concede nos famulos.flac" WAVE TRACK 23 AUDIO FLAGS DCP TITLE "Concede nos famulos" PERFORMER "Cantar Lontano, Marco Mencoboni" INDEX 01 00:00:00FILE "24 Benedicamus Domino.flac" WAVE TRACK 24 AUDIO FLAGS DCP TITLE "Benedicamus Domino" PERFORMER "Cantar Lontano, Marco Mencoboni" INDEX 01 00:00:00FILE "25 Salve Regina - Diego Ortiz.flac" WAVE TRACK 25 AUDIO FLAGS DCP TITLE "Salve Regina - Diego Ortiz" PERFORMER "Cantar Lontano, Marco Mencoboni" INDEX 01 00:00:00

Лог проверки качества

AUDIOCHECKER v2.0 beta (build 457) - by Dester - opdester@freemail.hu~~~~~~~~~~~~~~~~~~~~~~~~~~~~~~~~~~-=== DO NOT EDIT THIS FILE! ===-
Path: ...\Ortiz - Ad Vesperas (Cantar Lontano)[flac]
01 -=- 01 Deus in adiutorium.flac -=- CDDA (100%)02 -=- 02 Ave Maria.flac -=- CDDA (100%)03 -=- 03 Dixit Dominus - Diego Ortiz.flac -=- CDDA (99%)04 -=- 04 Beata es Virgo - Diego Ortiz.flac -=- CDDA (100%)05 -=- 05 In Odorem unguentorum.flac -=- CDDA (100%)06 -=- 06 Confitebor - Diego Ortiz.flac -=- CDDA (100%)07 -=- 07 Dignare me laudare te - Diego Ortiz.flac -=- CDDA (99%)08 -=- 08 Cum esse parvula.flac -=- CDDA (100%)09 -=- 09 Beatus Vir - Diego Ortiz.flac -=- CDDA (100%)10 -=- 10 Ave regina coelorum - Diego Ortiz.flac -=- CDDA (100%)11 -=- 11 Speciosa facta es.flac -=- CDDA (100%)12 -=- 12 Laudate Pueri - Diego Ortiz.flac -=- CDDA (100%)13 -=- 13 Benedicta es celorum - Diego Ortiz.flac -=- CDDA (100%)14 -=- 14 Beata Mater.flac -=- CDDA (100%)15 -=- 15 Laudate Dominum - Diego Ortiz.flac -=- CDDA (100%)16 -=- 16 Regina coeli - Diego Ortiz.flac -=- CDDA (100%)17 -=- 17 Ab initio et ante saecula.flac -=- CDDA (100%)18 -=- 18 Ave Maris Stella - Diego Ortiz.flac -=- CDDA (100%)19 -=- 19 Dignare me.flac -=- CDDA (100%)20 -=- 20 Beatam me dicent.flac -=- CDDA (100%)21 -=- 21 Magnificat, octavi toni - Diego Ortiz.flac -=- CDDA (100%)22 -=- 22 Beatam me dicent.flac -=- CDDA (100%)23 -=- 23 Concede nos famulos.flac -=- CDDA (100%)24 -=- 24 Benedicamus Domino.flac -=- CDDA (100%)25 -=- 25 Salve Regina - Diego Ortiz.flac -=- CDDA (100%)
Summary 99,92% CDDA
89555092

Скриншот спектра частот

[teatrix.ru].t7985.torrent 
Торрент: Зарегистрирован [ 2015-10-14 02:49 ] · BF8E4252A43091FC2C00284E48AE6ECCCB00B93F

Скачать .torrent

Скачать

18 KB

Статус: проверено
Скачан: 0 раз
Размер: 363 MB
terms.php



Быстрый ответ

Имя:

      
Для отправки сообщений необходимо включить JavaScript
Показать сообщения:    

Текущее время: 18-Янв 00:25

Часовой пояс: UTC + 3


Вы можете начинать темы
Вы можете отвечать на сообщения
Вы не можете редактировать свои сообщения
Вы не можете удалять свои сообщения
Вы не можете голосовать в опросах
Вы не можете прикреплять файлы к сообщениям
Вы можете скачивать файлы