(Classical, sacred) Giovanni Felice Sances - Dulcis Amor Iesu: Motetti a 1, 2, 3 & 4 voci - Scherzi Musicali, Nicolas Achten - 2009, FLAC (image+.cue) lossless


Статистика раздачи [Обновить пиров]
Размер:  418 MB   |    Зарегистрирован:  1 год 1 месяц   |    Скачан:  0 раз

Полного источника не было: Никогда

 
   
 
 
 

[Цитировать]

Giovanni Felice Sances - Dulcis Amor Iesu: Motetti a 1, 2, 3 & 4 voci - Scherzi Musicali, Nicolas Achten
Жанр: Classical, sacred
Страна-производитель диска: France
Год издания диска: 2009
Издатель (лейбл): Ricercar
Номер по каталогу: RIC 292
Дата записи: 2009
Аудиокодек: FLAC
Тип рипа: image+.cue
Битрейт аудио: lossless
Продолжительность: 73:11
Источник: собственный рип
Наличие сканов в содержимом раздачи: да
Треклист:
Giovanni Felice Sances (ca 1600-1679)
[1] Iubilent in coelis
[2] Iste confessor Domini colentes
[3] Dulcis amor Iesu
[4] Girolamo Kapsberger: Toccata prima
[5] Salvum me fac
[6] Salve Regina
[7] Ciaccona - Domine ne memineris iniquitatum nostrarum
[8] Stabat mater dolorosa
[9] Luigi Rossi: Ritornello
[10] Vulnerasti cor meum
[11] Michelangelo Rossi: Toccata settima
[12] O Iesu mi dulcissime
[13] Magnificemus in cantico
[14] Ave maris stella
[15] Laudemus viros gloriosos
Исполнители:
Scherzi Musicali
Nicolas Achten

Лог создания рипа

Exact Audio Copy V1.0 beta 3 from 29. August 2011
EAC extraction logfile from 26. January 2014, 21:19
Scherzi Musicali, Nicolas Achten / Giovanni Felice Sances - Dulcis Amor Iesu
Used drive : HL-DT-STDVDRAM GSA-4083N Adapter: 1 ID: 0
Read mode : SecureUtilize accurate stream : YesDefeat audio cache : YesMake use of C2 pointers : No
Read offset correction : 667Overread into Lead-In and Lead-Out : NoFill up missing offset samples with silence : YesDelete leading and trailing silent blocks : NoNull samples used in CRC calculations : YesUsed interface : Native Win32 interface for Win NT & 2000
Used output format : User Defined EncoderSelected bitrate : 896 kBit/sQuality : HighAdd ID3 tag : NoCommand line compressor : C:\Program Files\Exact Audio Copy\Flac\flac.exeAdditional command line options : -V -8 %source%
TOC of the extracted CD
Track | Start | Length | Start sector | End sector --------------------------------------------------------- 1 | 0:00.00 | 5:34.73 | 0 | 25122 2 | 5:34.73 | 3:01.50 | 25123 | 38747 3 | 8:36.48 | 3:36.33 | 38748 | 54980 4 | 12:13.06 | 5:29.14 | 54981 | 79669 5 | 17:42.20 | 4:45.70 | 79670 | 101114 6 | 22:28.15 | 6:16.51 | 101115 | 129365 7 | 28:44.66 | 5:02.48 | 129366 | 152063 8 | 33:47.39 | 10:28.60 | 152064 | 199223 9 | 44:16.24 | 1:15.64 | 199224 | 204912 10 | 45:32.13 | 5:05.02 | 204913 | 227789 11 | 50:37.15 | 3:47.17 | 227790 | 244831 12 | 54:24.32 | 4:14.39 | 244832 | 263920 13 | 58:38.71 | 4:41.29 | 263921 | 285024 14 | 63:20.25 | 3:17.10 | 285025 | 299809 15 | 66:37.35 | 6:31.43 | 299810 | 329177
Range status and errors
Selected range
Filename J:\New Music\Sances - Dulcis Amor Iesu\Sances - Dulcis Amor Iesu.wav
Peak level 96.4 % Extraction speed 2.6 X Range quality 99.9 % Test CRC 7288F99C Copy CRC 7288F99C Copy OK
No errors occurred
AccurateRip summary
Track 1 accurately ripped (confidence 2) [578C3ED6] (AR v2)Track 2 accurately ripped (confidence 2) [A4D5A490] (AR v2)Track 3 accurately ripped (confidence 2) [4D9F4D24] (AR v2)Track 4 accurately ripped (confidence 2) [EBB60862] (AR v2)Track 5 accurately ripped (confidence 2) [5807EFA2] (AR v2)Track 6 accurately ripped (confidence 2) [E9E5E9FB] (AR v2)Track 7 accurately ripped (confidence 2) [601981CA] (AR v2)Track 8 accurately ripped (confidence 2) [0B579C0C] (AR v2)Track 9 accurately ripped (confidence 2) [EA326E26] (AR v2)Track 10 accurately ripped (confidence 2) [3F10538B] (AR v2)Track 11 accurately ripped (confidence 2) [B8AE5202] (AR v2)Track 12 accurately ripped (confidence 2) [42A0B28E] (AR v2)Track 13 accurately ripped (confidence 2) [5CA9D9D3] (AR v2)Track 14 accurately ripped (confidence 2) [535A97B2] (AR v2)Track 15 accurately ripped (confidence 2) [358089B0] (AR v2)
All tracks accurately ripped
End of status report
==== Log checksum 7DF948240D40B6B3E896CCF0AC3A17468A8B008163322AEAD70B0351F180F8EB ====
[teatrix.ru].t7986.torrent 
Торрент: Зарегистрирован [ 2015-10-14 02:49 ] · 680677B7576C1366011F440D62D19608365F04D8

Скачать .torrent

Скачать

35 KB

Статус: проверено
Скачан: 0 раз
Размер: 418 MB
terms.php



Быстрый ответ

Имя:

      
Для отправки сообщений необходимо включить JavaScript
Показать сообщения:    

Текущее время: 11-Дек 13:01

Часовой пояс: UTC + 3


Вы можете начинать темы
Вы можете отвечать на сообщения
Вы не можете редактировать свои сообщения
Вы не можете удалять свои сообщения
Вы не можете голосовать в опросах
Вы не можете прикреплять файлы к сообщениям
Вы можете скачивать файлы