(Classical, sacred) William Byrd - The Great Service in the Chapel Royal - Musica Contexta, Simon Ravens; Steven Devine, The English Cornett and Sackbut Ensemble - 2012, FLAC (image+.cue) lossless


Статистика раздачи [Обновить пиров]
Размер:  293 MB   |    Зарегистрирован:  1 год 1 месяц   |    Скачан:  0 раз

Полного источника не было: Никогда

 
   
 
 
 

[Цитировать]

William Byrd - The Great Service in the Chapel Royal - Musica Contexta, Simon Ravens; Steven Devine, The English Cornett and Sackbut Ensemble
Жанр: Classical, sacred
Страна-производитель диска: UK
Год издания диска: 2012
Издатель (лейбл): Chandos Records
Номер по каталогу: CHAN 0789
Дата записи: 2011
Аудиокодек: FLAC
Тип рипа: image+.cue
Битрейт аудио: lossless
Продолжительность: 67:24
Источник: собственный рип
Наличие сканов в содержимом раздачи: да
Треклист:
William Byrd (c. 1540 – 1623)
The Great Service in the Chapel Royal
Matins 29:50
[1] Constitues eos (prima pars)
Six-voice motet from Gradualia seu cantionum sacrarum, liber secundus (London, 1607)
[2] Venite
[3] Psalm 114. When Israel came out of Egypt
[4] Te Deum
[5] Benedictus
[6] Anthem. Sing joyfully unto God our strength
Communion 11:34
[7] Nunc scio vere (prima pars)
Six-voice motet from Gradualia seu cantionum sacrarum, liber secundus (London, 1607)
[8] Kyrie
[9] Prelude in C
Organ solo
[10] Creed
Evensong 25:49
[11] Hodie Simon Petrus
Six-voice motet from Gradualia seu cantionum sacrarum, liber secundus (London, 1607)
[12] Psalm 47. O clap your hands together, all ye people
[13] Magnificat
[14] Verse in C
Organ solo
[15] Nunc dimittis
[16] Anthem. O Lord, make thy servant Elizabeth
Исполнители:
Musica Contexta
Simon Ravens
director
with
Steven Devine organ
The English Cornett and Sackbut Ensemble

Лог создания рипа

Exact Audio Copy V1.0 beta 3 from 29. August 2011
EAC extraction logfile from 16. December 2013, 11:49
Musica Contexta, Simon Ravens / Byrd - The Great Service
Used drive : HL-DT-STDVDRRW GWA-4164B Adapter: 5 ID: 0
Read mode : SecureUtilize accurate stream : YesDefeat audio cache : YesMake use of C2 pointers : No
Read offset correction : 102Overread into Lead-In and Lead-Out : NoFill up missing offset samples with silence : YesDelete leading and trailing silent blocks : NoNull samples used in CRC calculations : YesUsed interface : Native Win32 interface for Win NT & 2000
Used output format : User Defined EncoderSelected bitrate : 896 kBit/sQuality : HighAdd ID3 tag : NoCommand line compressor : C:\Program Files\Exact Audio Copy\FLAC\FLAC.EXEAdditional command line options : -V -8 %source%
TOC of the extracted CD
Track | Start | Length | Start sector | End sector --------------------------------------------------------- 1 | 0:00.00 | 1:12.38 | 0 | 5437 2 | 1:12.38 | 5:13.35 | 5438 | 28947 3 | 6:25.73 | 1:54.40 | 28948 | 37537 4 | 8:20.38 | 9:35.10 | 37538 | 80672 5 | 17:55.48 | 9:17.40 | 80673 | 122487 6 | 27:13.13 | 2:42.25 | 122488 | 134662 7 | 29:55.38 | 3:50.10 | 134663 | 151922 8 | 33:45.48 | 0:54.55 | 151923 | 156027 9 | 34:40.28 | 1:14.60 | 156028 | 161637 10 | 35:55.13 | 5:37.25 | 161638 | 186937 11 | 41:32.38 | 3:34.25 | 186938 | 203012 12 | 45:06.63 | 3:11.45 | 203013 | 217382 13 | 48:18.33 | 9:27.15 | 217383 | 259922 14 | 57:45.48 | 2:05.00 | 259923 | 269297 15 | 59:50.48 | 5:02.35 | 269298 | 291982 16 | 64:53.08 | 2:29.67 | 291983 | 303224
Range status and errors
Selected range
Filename D:\temp\Music\CHAN_00789 - Byrd - The Great Service (Chandos)\Byrd - The Great Service.wav
Peak level 85.5 % Extraction speed 4.0 X Range quality 100.0 % Test CRC 132D39DD Copy CRC 132D39DD Copy OK
No errors occurred
AccurateRip summary
Track 1 not present in databaseTrack 2 not present in databaseTrack 3 not present in databaseTrack 4 not present in databaseTrack 5 not present in databaseTrack 6 not present in databaseTrack 7 not present in databaseTrack 8 not present in databaseTrack 9 not present in databaseTrack 10 not present in databaseTrack 11 not present in databaseTrack 12 not present in databaseTrack 13 not present in databaseTrack 14 not present in databaseTrack 15 not present in databaseTrack 16 not present in database
None of the tracks are present in the AccurateRip database
End of status report
==== Log checksum F73DA199B84F6E9582DD2D0FCBBD217669298DD5FAD2E13030E5D259099B58D9 ====
[teatrix.ru].t7987.torrent 
Торрент: Зарегистрирован [ 2015-10-14 02:49 ] · 1C64DF53AE638200A446894738BAD330AE660025

Скачать .torrent

Скачать

24 KB

Статус: проверено
Скачан: 0 раз
Размер: 293 MB
terms.php



Быстрый ответ

Имя:

      
Для отправки сообщений необходимо включить JavaScript
Показать сообщения:    

Текущее время: 11-Дек 09:08

Часовой пояс: UTC + 3


Вы можете начинать темы
Вы можете отвечать на сообщения
Вы не можете редактировать свои сообщения
Вы не можете удалять свои сообщения
Вы не можете голосовать в опросах
Вы не можете прикреплять файлы к сообщениям
Вы можете скачивать файлы