(Classical) Агостино Стеффани / Agostino Steffani - Stabat Mater (Diego Fasolis, I Barocchisti; Bartoli, Fagioli, Pregardien, Vitale, Coro della Radiotelevisione Svizzera) - 2013, FLAC (image+.cue) lossless


Статистика раздачи [Обновить пиров]
Размер:  360 MB   |    Зарегистрирован:  1 год 1 месяц   |    Скачан:  0 раз

Полного источника не было: Никогда

 
   
 
 
 

[Цитировать]

Steffani - Stabat Mater (Diego Fasolis, I Barocchisti; Bartoli, Fagioli, Pregardien, Vitale, Coro della Radiotelevisione Svizzera)
Жанр: Classical
Год издания диска: 2013
Издатель (лейбл): DECCA
Номер по каталогу: 478 5336
Аудиокодек: FLAC
Тип рипа: image+.cue
Битрейт аудио: lossless
Продолжительность: 72’40
Источник: собственный рип
Наличие сканов в содержимом раздачи: да
Треклист:
01. Stabat Mater: I. Stabat Mater dolorosa
02. II. Cujus animan gementem
03. III. Quis est homo qui non fleret
04. IV. Pro peccatis suae gentis
05. V. Vidit suum dulcem Natum
06. VI. Eja Mater, fons amoris
07. VII. Fac me vere tecum flere
08. VIII. Virgo virginum preclara
09. IX. Fac, ut portem Christi mortem
10. X. Fac me plagis vulnerari
11. XI. Inflammatus et accensus
12. XII. Quando corpus morietur
13. Beatus vir
14. Non plus me ligate
15. Triduanas a Domino
16. Laudate pueri
17. Sperate in Deo
18. Qui diligit Mariam
Исполнители:
Cecilia Bartoli
Nuria Rial
Yetzabel Arias Fernandez
Elena Carzaniga
Franco Fagioli
Daniel Behle
Julian Pregardien
Salvo Vitale
Coro della Radiotelevisione svizzera, Lugano
I Barocchisti
Diego Fasolis, direction

LOG EAC

Exact Audio Copy V1.0 beta 3 from 29. August 2011
EAC extraction logfile from 24. January 2014, 14:57
Diego Fasolis - I Barocchisti / Steffani - Stabat Mater
Used drive : PIONEER DVD-RW DVR-218L Adapter: 0 ID: 1
Read mode : SecureUtilize accurate stream : YesDefeat audio cache : YesMake use of C2 pointers : No
Read offset correction : 6Overread into Lead-In and Lead-Out : NoFill up missing offset samples with silence : YesDelete leading and trailing silent blocks : NoNull samples used in CRC calculations : YesUsed interface : Native Win32 interface for Win NT & 2000
Used output format : User Defined EncoderSelected bitrate : 128 kBit/sQuality : HighAdd ID3 tag : NoCommand line compressor : C:\Program Files\Exact Audio Copy\Flac\flac.exeAdditional command line options : -V -8 -T "Date=%year%" -T "Genre=%genre%" %source%
TOC of the extracted CD
Track | Start | Length | Start sector | End sector --------------------------------------------------------- 1 | 0:00.00 | 2:11.31 | 0 | 9855 2 | 2:11.31 | 1:59.59 | 9856 | 18839 3 | 4:11.15 | 2:46.27 | 18840 | 31316 4 | 6:57.42 | 1:18.25 | 31317 | 37191 5 | 8:15.67 | 1:07.10 | 37192 | 42226 6 | 9:23.02 | 4:15.35 | 42227 | 61386 7 | 13:38.37 | 2:26.13 | 61387 | 72349 8 | 16:04.50 | 1:28.46 | 72350 | 78995 9 | 17:33.21 | 1:02.37 | 78996 | 83682 10 | 18:35.58 | 1:06.46 | 83683 | 88678 11 | 19:42.29 | 1:27.49 | 88679 | 95252 12 | 21:10.03 | 4:05.03 | 95253 | 113630 13 | 25:15.06 | 5:19.13 | 113631 | 137568 14 | 30:34.19 | 6:28.40 | 137569 | 166708 15 | 37:02.59 | 2:54.37 | 166709 | 179795 16 | 39:57.21 | 9:38.58 | 179796 | 223203 17 | 49:36.04 | 13:00.34 | 223204 | 281737 18 | 62:36.38 | 10:03.68 | 281738 | 327030
Range status and errors
Selected range
Filename C:\Steffani - Stabat Mater.wav
Peak level 99.0 % Extraction speed 2.1 X Range quality 100.0 % Test CRC 26497D53 Copy CRC 26497D53 Copy OK
No errors occurred
End of status report
==== Log checksum EC06ECC93A135045C3C61741D7B416CF88F3F291A60317690B85BDC14A86FB51 ====

Содержание индексной карты (.CUE)

REM GENRE BaroqueREM DATE 2013REM DISCID 06110812REM COMMENT "ExactAudioCopy v1.0b3"PERFORMER "Diego Fasolis - I Barocchisti"TITLE "Steffani - Stabat Mater "FILE "Steffani - Stabat Mater.Flac" WAVE TRACK 01 AUDIO TITLE "Stabat Mater: I. Stabat Mater dolorosa" PERFORMER "Diego Fasolis - I Barocchisti" INDEX 01 00:00:00 TRACK 02 AUDIO TITLE "II. Cujus animan gementem" PERFORMER "Diego Fasolis - I Barocchisti" INDEX 01 02:11:31 TRACK 03 AUDIO TITLE "III. Quis est homo qui non fleret" PERFORMER "Diego Fasolis - I Barocchisti" INDEX 01 04:11:15 TRACK 04 AUDIO TITLE "IV. Pro peccatis suae gentis" PERFORMER "Diego Fasolis - I Barocchisti" INDEX 01 06:57:42 TRACK 05 AUDIO TITLE "V. Vidit suum dulcem Natum" PERFORMER "Diego Fasolis - I Barocchisti" INDEX 01 08:15:67 TRACK 06 AUDIO TITLE "VI. Eja Mater, fons amoris" PERFORMER "Diego Fasolis - I Barocchisti" INDEX 01 09:23:02 TRACK 07 AUDIO TITLE "VII. Fac me vere tecum flere" PERFORMER "Diego Fasolis - I Barocchisti" INDEX 01 13:38:37 TRACK 08 AUDIO TITLE "VIII. Virgo virginum preclara" PERFORMER "Diego Fasolis - I Barocchisti" INDEX 01 16:04:50 TRACK 09 AUDIO TITLE "IX. Fac, ut portem Christi mortem" PERFORMER "Diego Fasolis - I Barocchisti" INDEX 01 17:33:21 TRACK 10 AUDIO TITLE "X. Fac me plagis vulnerari" PERFORMER "Diego Fasolis - I Barocchisti" INDEX 01 18:35:58 TRACK 11 AUDIO TITLE "XI. Inflammatus et accensus" PERFORMER "Diego Fasolis - I Barocchisti" INDEX 01 19:42:29 TRACK 12 AUDIO TITLE "XII. Quando corpus morietur" PERFORMER "Diego Fasolis - I Barocchisti" INDEX 01 21:10:03 TRACK 13 AUDIO TITLE "Beatus vir" PERFORMER "Diego Fasolis - I Barocchisti" INDEX 00 25:08:08 INDEX 01 25:15:06 TRACK 14 AUDIO TITLE "Non plus me ligate" PERFORMER "Diego Fasolis - I Barocchisti" INDEX 00 30:30:57 INDEX 01 30:34:19 TRACK 15 AUDIO TITLE "Triduanas a Domino" PERFORMER "Diego Fasolis - I Barocchisti" INDEX 00 36:55:58 INDEX 01 37:02:59 TRACK 16 AUDIO TITLE "Laudate pueri" PERFORMER "Diego Fasolis - I Barocchisti" INDEX 00 39:53:72 INDEX 01 39:57:21 TRACK 17 AUDIO TITLE "Sperate in Deo" PERFORMER "Diego Fasolis - I Barocchisti" INDEX 00 49:32:52 INDEX 01 49:36:04 TRACK 18 AUDIO TITLE "Qui diligit Mariam" PERFORMER "Diego Fasolis - I Barocchisti" INDEX 00 62:32:65 INDEX 01 62:36:38
Доп. информация:
Агостино Стеффани или Стефани (итал. Agostino Steffani, Stefani, Stephani, Staffani, Steffano, 1654—1728) — итальянский композитор, теоретик музыки и дипломат. В 1674—1688 — придворный органист в Мюнхене, с 1681 — директор камерной музыки. В 1688—1703 — капельмейстер Ганноверского двора и дипломат. В 1703—1709 — на дипломатической службе в Дюссельдорфе. С этого времени практически оставил музыку и до конца жизни занимался в основном дипломатической и церковной деятельностью (как папский протонотарий). Его музыкальное наследие состоит большей частью из вокальных произведений, среди которых наиболее значительны оперы и камерные дуэты, оказавшие влияние на других композиторов.
Стеффани — автор трактата «Quanta certezza habbia da suoi principii la musica» («Достоверные сведения о началах музыки»; Амстердам, 1695), который в 1700 году перевёл с итальянского и откомментировал Андреас Веркмейстер. Вторично трактат Стеффани перевёл (с комментариями) И. Л. Альбрехт, издавший трактат Стеффани в Мюльхаузене, в 1760 году.
[teatrix.ru].t7988.torrent 
Торрент: Зарегистрирован [ 2015-10-14 02:49 ] · E57B146448D9926B9408E433C0E51FBF51DC604A

Скачать .torrent

Скачать

15 KB

Статус: проверено
Скачан: 0 раз
Размер: 360 MB
terms.php



Быстрый ответ

Имя:

      
Для отправки сообщений необходимо включить JavaScript
Показать сообщения:    

Текущее время: 05-Дек 11:32

Часовой пояс: UTC + 3


Вы можете начинать темы
Вы можете отвечать на сообщения
Вы не можете редактировать свои сообщения
Вы не можете удалять свои сообщения
Вы не можете голосовать в опросах
Вы не можете прикреплять файлы к сообщениям
Вы можете скачивать файлы