(Classical) Агостино Стеффани / Agostino Steffani - Danze e Ouvertures (Diego Fasolis, I Barocchisti, Coro della Radiotelevisione Svizzera) - 2013, FLAC (image+.cue) lossless


Статистика раздачи [Обновить пиров]
Размер:  409 MB   |    Зарегистрирован:  1 год 1 месяц   |    Скачан:  0 раз

Полного источника не было: Никогда

 
   
 
 
 

[Цитировать]

Steffani - Danze e Ouvertures (Diego Fasolis, I Barocchisti, Coro della Radiotelevisione Svizzera)
Жанр: Classical
Год издания диска: 2013
Издатель (лейбл): DECCA
Номер по каталогу: 478 5741
Аудиокодек: FLAC
Тип рипа: image+.cue
Битрейт аудио: lossless
Продолжительность: 75’09
Источник: собственный рип - mp3
Наличие сканов в содержимом раздачи: да
Треклист:
01. Orlando generoso: I. Ouverture
02. II. Menuet
03. III. Prelude: Tres viste
04. IV. Gavotte
05. V. Menuet
06. VI. Bourree
07. VII. Gigue
08. Marco Aurelio: Sinfonia
09. Henrico Leone: I. Ouverture
10. II. Air: Grave
11. III. Prelude pour les Demons: Tres viste
12. I trionfi del fato: Ouverture
13. Le rivali concordi: Sarabande. Tres lentement
14 Tassilone: Sinfonia
15. Niobe, regina di Tebe: I. Ouverture
16. II. Ritornello tiberino
17. III. Terremoto
18. IV. Marcia di Creonte
19. La lotta d'Hercole con Acheloo: Ouverture
20. I trionfi del fato: Les Ombres. Grave
21. Le rivali concordi: Ouverture
22. Henrico Leone: Chaconne
23. Briseide: Ouverture
24. Orlando generoso: Gsavotte en Rondeau
25. La superbia d'Alessandro: I. Ouverture
26. II. Air: Tres viste
27. III. Menuet
28. IV. Gavotte
29. V. Air: Tendre
30. VI. Air: Viste
31. Alcibiade (La liberta contenta): I. Ouverture
32. II. Gavotte
33. III. Passepied en Rondeau
34. IV. Gigue
35. Servio Tullio: Sinfonia
36. I trionfi del fato: I. Sarabande. Lentement
37. II. Premier Rigaudon - Second Rigaudon
38. Niobe, regina di Tebe: Gavotta
39. La lotta d'Hercole con Acheloo: I. Premier Air: Lentement - Viste - Lentement
40. II. Second Air pour les mesmes: Gigue
41. III. Troisieme Air pour les mesmes. Sarabande
42. IV. Gigue da capo
43. Amor vien dal destino: Introduzione al dramma
Исполнители:
Coro della Radiotelevisione Svizzera
I Barocchisti
Conductor - Diego Fasolis

LOG EAC

Exact Audio Copy V1.0 beta 3 from 29. August 2011
EAC extraction logfile from 23. January 2014, 16:50
Diego Fasolis - I Barocchisti / Steffani - Danze e Ouvertures
Used drive : PIONEER DVD-RW DVR-218L Adapter: 0 ID: 1
Read mode : SecureUtilize accurate stream : YesDefeat audio cache : YesMake use of C2 pointers : No
Read offset correction : 6Overread into Lead-In and Lead-Out : NoFill up missing offset samples with silence : YesDelete leading and trailing silent blocks : NoNull samples used in CRC calculations : YesUsed interface : Native Win32 interface for Win NT & 2000
Used output format : User Defined EncoderSelected bitrate : 128 kBit/sQuality : HighAdd ID3 tag : NoCommand line compressor : C:\Program Files\Exact Audio Copy\Flac\flac.exeAdditional command line options : -V -8 -T "Date=%year%" -T "Genre=%genre%" %source%
TOC of the extracted CD
Track | Start | Length | Start sector | End sector --------------------------------------------------------- 1 | 0:00.00 | 2:42.11 | 0 | 12160 2 | 2:42.11 | 1:01.26 | 12161 | 16761 3 | 3:43.37 | 0:22.26 | 16762 | 18437 4 | 4:05.63 | 0:32.07 | 18438 | 20844 5 | 4:37.70 | 1:13.01 | 20845 | 26320 6 | 5:50.71 | 0:32.17 | 26321 | 28737 7 | 6:23.13 | 0:52.34 | 28738 | 32671 8 | 7:15.47 | 1:56.38 | 32672 | 41409 9 | 9:12.10 | 2:44.11 | 41410 | 53720 10 | 11:56.21 | 2:16.53 | 53721 | 63973 11 | 14:12.74 | 0:18.37 | 63974 | 65360 12 | 14:31.36 | 3:40.74 | 65361 | 81934 13 | 18:12.35 | 1:36.74 | 81935 | 89208 14 | 19:49.34 | 4:00.18 | 89209 | 107226 15 | 23:49.52 | 3:50.50 | 107227 | 124526 16 | 27:40.27 | 0:55.73 | 124527 | 128724 17 | 28:36.25 | 0:40.65 | 128725 | 131789 18 | 29:17.15 | 0:41.48 | 131790 | 134912 19 | 29:58.63 | 2:18.35 | 134913 | 145297 20 | 32:17.23 | 4:05.43 | 145298 | 163715 21 | 36:22.66 | 2:43.30 | 163716 | 175970 22 | 39:06.21 | 3:07.59 | 175971 | 190054 23 | 42:14.05 | 3:02.49 | 190055 | 203753 24 | 45:16.54 | 1:18.67 | 203754 | 209670 25 | 46:35.46 | 1:42.43 | 209671 | 217363 26 | 48:18.14 | 0:45.31 | 217364 | 220769 27 | 49:03.45 | 0:45.53 | 220770 | 224197 28 | 49:49.23 | 0:49.54 | 224198 | 227926 29 | 50:39.02 | 0:56.69 | 227927 | 232195 30 | 51:35.71 | 1:00.02 | 232196 | 236697 31 | 52:35.73 | 3:32.49 | 236698 | 252646 32 | 56:08.47 | 0:34.35 | 252647 | 255231 33 | 56:43.07 | 1:10.17 | 255232 | 260498 34 | 57:53.24 | 1:20.33 | 260499 | 266531 35 | 59:13.57 | 2:24.00 | 266532 | 277331 36 | 61:37.57 | 2:15.74 | 277332 | 287530 37 | 63:53.56 | 1:23.45 | 287531 | 293800 38 | 65:17.26 | 1:15.64 | 293801 | 299489 39 | 66:33.15 | 1:45.21 | 299490 | 307385 40 | 68:18.36 | 0:50.52 | 307386 | 311187 41 | 69:09.13 | 1:21.18 | 311188 | 317280 42 | 70:30.31 | 0:29.73 | 317281 | 319528 43 | 71:00.29 | 4:06.67 | 319529 | 338045
Range status and errors
Selected range
Filename C:\Steffani - Danze e Ouvertures.wav
Peak level 99.3 % Extraction speed 2.1 X Range quality 100.0 % Test CRC 22ED90CC Copy CRC 22ED90CC Copy OK
No errors occurred
End of status report
==== Log checksum 48361900B3C5943F613E6E28719E29910029CD494205F8478753ABE95A9F6909 ====

Содержание индексной карты (.CUE)

REM GENRE ClassicalREM DATE 2013REM DISCID 97119B2BREM COMMENT "ExactAudioCopy v1.0b3"PERFORMER "Diego Fasolis - I Barocchisti"TITLE "Steffani - Danze e Ouvertures"FILE "Steffani - Danze e Ouvertures.Flac" WAVE TRACK 01 AUDIO TITLE "Orlando generoso: I. Ouverture" PERFORMER "Diego Fasolis - I Barocchisti" INDEX 01 00:00:00 TRACK 02 AUDIO TITLE "II. Menuet" PERFORMER "Diego Fasolis - I Barocchisti" INDEX 01 02:42:11 TRACK 03 AUDIO TITLE "III. Prelude: Tres viste" PERFORMER "Diego Fasolis - I Barocchisti" INDEX 01 03:43:37 TRACK 04 AUDIO TITLE "IV. Gavotte" PERFORMER "Diego Fasolis - I Barocchisti" INDEX 01 04:05:63 TRACK 05 AUDIO TITLE "V. Menuet" PERFORMER "Diego Fasolis - I Barocchisti" INDEX 01 04:37:70 TRACK 06 AUDIO TITLE "VI. Bourree" PERFORMER "Diego Fasolis - I Barocchisti" INDEX 01 05:50:71 TRACK 07 AUDIO TITLE "VII. Gigue" PERFORMER "Diego Fasolis - I Barocchisti" INDEX 01 06:23:13 TRACK 08 AUDIO TITLE "Marco Aurelio: Sinfonia" PERFORMER "Diego Fasolis - I Barocchisti" INDEX 01 07:15:47 TRACK 09 AUDIO TITLE "Henrico Leone: I. Ouverture" PERFORMER "Diego Fasolis - I Barocchisti" INDEX 01 09:12:10 TRACK 10 AUDIO TITLE "II. Air: Grave" PERFORMER "Diego Fasolis - I Barocchisti" INDEX 01 11:56:21 TRACK 11 AUDIO TITLE "III. Prelude pour les Demons: Tres viste" PERFORMER "Diego Fasolis - I Barocchisti" INDEX 01 14:12:74 TRACK 12 AUDIO TITLE "I trionfi del fato: Ouverture" PERFORMER "Diego Fasolis - I Barocchisti" INDEX 01 14:31:36 TRACK 13 AUDIO TITLE "Le rivali concordi: Sarabande. Tres lentement" PERFORMER "Diego Fasolis - I Barocchisti" INDEX 01 18:12:35 TRACK 14 AUDIO TITLE "Tassilone: Sinfonia" PERFORMER "Diego Fasolis - I Barocchisti" INDEX 01 19:49:34 TRACK 15 AUDIO TITLE "Niobe, regina di Tebe: I. Ouverture" PERFORMER "Diego Fasolis - I Barocchisti" INDEX 01 23:49:52 TRACK 16 AUDIO TITLE "II. Ritornello tiberino" PERFORMER "Diego Fasolis - I Barocchisti" INDEX 01 27:40:27 TRACK 17 AUDIO TITLE "III. Terremoto" PERFORMER "Diego Fasolis - I Barocchisti" INDEX 01 28:36:25 TRACK 18 AUDIO TITLE "IV. Marcia di Creonte" PERFORMER "Diego Fasolis - I Barocchisti" INDEX 01 29:17:15 TRACK 19 AUDIO TITLE "La lotta d'Hercole con Acheloo: Ouverture" PERFORMER "Diego Fasolis - I Barocchisti" INDEX 01 29:58:63 TRACK 20 AUDIO TITLE "I trionfi del fato: Les Ombres. Grave" PERFORMER "Diego Fasolis - I Barocchisti" INDEX 01 32:17:23 TRACK 21 AUDIO TITLE "Le rivali concordi: Ouverture" PERFORMER "Diego Fasolis - I Barocchisti" INDEX 01 36:22:66 TRACK 22 AUDIO TITLE "Henrico Leone: Chaconne" PERFORMER "Diego Fasolis - I Barocchisti" INDEX 01 39:06:21 TRACK 23 AUDIO TITLE "Briseide: Ouverture" PERFORMER "Diego Fasolis - I Barocchisti" INDEX 01 42:14:05 TRACK 24 AUDIO TITLE "Orlando generoso: Gsavotte en Rondeau" PERFORMER "Diego Fasolis - I Barocchisti" INDEX 01 45:16:54 TRACK 25 AUDIO TITLE "La superbia d'Alessandro: I. Ouverture" PERFORMER "Diego Fasolis - I Barocchisti" INDEX 01 46:35:46 TRACK 26 AUDIO TITLE "II. Air: Tres viste" PERFORMER "Diego Fasolis - I Barocchisti" INDEX 01 48:18:14 TRACK 27 AUDIO TITLE "III. Menuet" PERFORMER "Diego Fasolis - I Barocchisti" INDEX 01 49:03:45 TRACK 28 AUDIO TITLE "IV. Gavotte" PERFORMER "Diego Fasolis - I Barocchisti" INDEX 01 49:49:23 TRACK 29 AUDIO TITLE "V. Air: Tendre" PERFORMER "Diego Fasolis - I Barocchisti" INDEX 01 50:39:02 TRACK 30 AUDIO TITLE "VI. Air: Viste" PERFORMER "Diego Fasolis - I Barocchisti" INDEX 01 51:35:71 TRACK 31 AUDIO TITLE "Alcibiade (La liberta contenta): I. Ouverture" PERFORMER "Diego Fasolis - I Barocchisti" INDEX 01 52:35:73 TRACK 32 AUDIO TITLE "II. Gavotte" PERFORMER "Diego Fasolis - I Barocchisti" INDEX 01 56:08:47 TRACK 33 AUDIO TITLE "III. Passepied en Rondeau" PERFORMER "Diego Fasolis - I Barocchisti" INDEX 01 56:43:07 TRACK 34 AUDIO TITLE "IV. Gigue" PERFORMER "Diego Fasolis - I Barocchisti" INDEX 01 57:53:24 TRACK 35 AUDIO TITLE "Servio Tullio: Sinfonia" PERFORMER "Diego Fasolis - I Barocchisti" INDEX 01 59:13:57 TRACK 36 AUDIO TITLE "I trionfi del fato: I. Sarabande. Lentement" PERFORMER "Diego Fasolis - I Barocchisti" INDEX 01 61:37:57 TRACK 37 AUDIO TITLE "II. Premier Rigaudon - Second Rigaudon" PERFORMER "Diego Fasolis - I Barocchisti" INDEX 01 63:53:56 TRACK 38 AUDIO TITLE "Niobe, regina di Tebe: Gavotta" PERFORMER "Diego Fasolis - I Barocchisti" INDEX 01 65:17:26 TRACK 39 AUDIO TITLE "La lotta d'Hercole con Acheloo: I. Premier Air: Lentement - Viste - Lentement" PERFORMER "Diego Fasolis - I Barocchisti" INDEX 01 66:33:15 TRACK 40 AUDIO TITLE "II. Second Air pour les mesmes: Gigue" PERFORMER "Diego Fasolis - I Barocchisti" INDEX 01 68:18:36 TRACK 41 AUDIO TITLE "III. Troisieme Air pour les mesmes. Sarabande" PERFORMER "Diego Fasolis - I Barocchisti" INDEX 01 69:09:13 TRACK 42 AUDIO TITLE "IV. Gigue da capo" PERFORMER "Diego Fasolis - I Barocchisti" INDEX 01 70:30:31 TRACK 43 AUDIO TITLE "Amor vien dal destino: Introduzione al dramma" PERFORMER "Diego Fasolis - I Barocchisti" INDEX 01 71:00:29
Доп. информация:
Агостино Стеффани или Стефани (итал. Agostino Steffani, Stefani, Stephani, Staffani, Steffano, 1654—1728) — итальянский композитор, теоретик музыки и дипломат. В 1674—1688 — придворный органист в Мюнхене, с 1681 — директор камерной музыки. В 1688—1703 — капельмейстер Ганноверского двора и дипломат. В 1703—1709 — на дипломатической службе в Дюссельдорфе. С этого времени практически оставил музыку и до конца жизни занимался в основном дипломатической и церковной деятельностью (как папский протонотарий). Его музыкальное наследие состоит большей частью из вокальных произведений, среди которых наиболее значительны оперы и камерные дуэты, оказавшие влияние на других композиторов.
Стеффани — автор трактата «Quanta certezza habbia da suoi principii la musica» («Достоверные сведения о началах музыки»; Амстердам, 1695), который в 1700 году перевёл с итальянского и откомментировал Андреас Веркмейстер. Вторично трактат Стеффани перевёл (с комментариями) И. Л. Альбрехт, издавший трактат Стеффани в Мюльхаузене, в 1760 году.
[teatrix.ru].t7989.torrent 
Торрент: Зарегистрирован [ 2015-10-14 02:49 ] · DCC5C88F05E8922038F000F99CD8142C6F8BB5D9

Скачать .torrent

Скачать

17 KB

Статус: проверено
Скачан: 0 раз
Размер: 409 MB
terms.php



Быстрый ответ

Имя:

      
Для отправки сообщений необходимо включить JavaScript
Показать сообщения:    

Текущее время: 08-Дек 17:25

Часовой пояс: UTC + 3


Вы можете начинать темы
Вы можете отвечать на сообщения
Вы не можете редактировать свои сообщения
Вы не можете удалять свои сообщения
Вы не можете голосовать в опросах
Вы не можете прикреплять файлы к сообщениям
Вы можете скачивать файлы