(Baroque/Sacred) John Blow - Anthems (Blaze, Butterfield, Kendall, Sweeney, Varcoe - The Parly of Instruments, Hill 1995) - 2006, APE (image+.cue) lossless


Статистика раздачи [Обновить пиров]
Размер:  455 MB   |    Зарегистрирован:  1 год 1 месяц   |    Скачан:  0 раз

Полного источника не было: Никогда

 
   
 
 
 

[Цитировать]

John Blow - Anthems
Жанр: Baroque/Sacred
Страна-производитель диска: England
Год издания диска: 2006
Издатель (лейбл): Hyperion dyad
Номер по каталогу: CDD22055
Дата записи: 1995
Аудиокодек: APE
Тип рипа: image+.cue
Битрейт аудио: lossless
Продолжительность: 58'22 + 58'07
Источник: собственный рип
Наличие сканов в содержимом раздачи: да
Треклист:

CD1

01 God Spake Sometime in Visions for soloists, chorus & orchestra
02 How Doth the City Sit Solitary
03 The Lord is My Shepherd
04 God is our Hope and Strength
05 I Beheld, and Lo! A Great Multitude
06 Turn Thee unto Me, O Lord
07 Blessed is the Man that hath not Walked

CD2

01 Lift up Your Heads, O Ye Gates
02 O Lord, I Have Sinned
03 O Give Thanks Unto the Lord, for He Is Gracious
04 O Lord, Thou Hast Searched Me Out and Known Me
05 Cry Aloud and Spare Not
06 Lord, Who Shall Dwell in Thy Tabernacle?
07: I Said in the Cutting Off of My Days
Исполнители:
John Blow (1649 - 1708) - Anthems
Robin Blaze (Countertenor)
Richard Childress (Countertenor)
Joseph Cornwell (Tenor)
William Kendall (Tenor)
Peter Butterfield (Tenor)
Stephen Varcoe (Bass)
Stephen Alder (Bass)
Donald Sweeney (Bass)
Winchester Cathedral Choir
Parley of Instruments
David Hill

Лог создания рипа

CD1

Exact Audio Copy V1.0 beta 3 from 29. August 2011
EAC extraction logfile from 22. July 2013, 15:46
Blow / Anthems, Hill 1995 CD1
Used drive : TSSTcorpCDDVDW SH-216AB Adapter: 0 ID: 1
Read mode : Secure
Utilize accurate stream : Yes
Defeat audio cache : Yes
Make use of C2 pointers : No
Read offset correction : 6
Overread into Lead-In and Lead-Out : No
Fill up missing offset samples with silence : Yes
Delete leading and trailing silent blocks : No
Null samples used in CRC calculations : Yes
Used interface : Native Win32 interface for Win NT & 2000
Used output format : Monkey's Audio Lossless Encoder
Selected bitrate : High Lossless Compression
Quality : High
Add ID3 tag : Yes
Command line compressor : K:\Program Files (x86)\Exact Audio Copy\Monkeys Audio\Monkey's Audio\MAC.exe
Additional command line options : -6 -V -T "ARTIST=%artist%" -T "TITLE=%title%" -T "ALBUM=%albumtitle%" -T "DATE=%year%" -T "TRACKNUMBER=%tracknr%" -T "GENRE=%genre%" -T "COMMENT=%comment%" -T "BAND=%albuminterpret%" -T "ALBUMARTIST=%albuminterpret%" -T "COMPOSER=%composer%" %haslyrics%--tag-from-file=LYRICS="%lyricsfile%"%haslyrics% -T "DISCNUMBER=%cdnumber%" -T "TOTALDISCS=%totalcds%" -T "TOTALTRACKS=%numtracks%" %hascover%--picture="%coverfile%"%hascover% %source% -o %dest%
TOC of the extracted CD
Track | Start | Length | Start sector | End sector
---------------------------------------------------------
1 | 0:00.00 | 12:29.00 | 0 | 56174
2 | 12:29.00 | 6:33.35 | 56175 | 85684
3 | 19:02.35 | 11:04.27 | 85685 | 135511
4 | 30:06.62 | 3:07.60 | 135512 | 149596
5 | 33:14.47 | 10:32.68 | 149597 | 197064
6 | 43:47.40 | 5:56.35 | 197065 | 223799
7 | 49:44.00 | 8:37.57 | 223800 | 262631
Range status and errors
Selected range
Filename K:\Users\Pumpy\Documents\Blow - Anthems, Hill 1995 CD1.wav
Peak level 92.3 %
Extraction speed 3.0 X
Range quality 100.0 %
Test CRC 44928FCC
Copy CRC 44928FCC
Copy OK
No errors occurred
AccurateRip summary
Track 1 accurately ripped (confidence 4) [A1712CA5] (AR v1)
Track 2 accurately ripped (confidence 5) [31BF5D5C] (AR v1)
Track 3 accurately ripped (confidence 5) [47430FF4] (AR v1)
Track 4 accurately ripped (confidence 5) [AE4E2EBF] (AR v1)
Track 5 accurately ripped (confidence 5) [929263C9] (AR v1)
Track 6 accurately ripped (confidence 5) [20B421D9] (AR v1)
Track 7 accurately ripped (confidence 5) [7ECEAD94] (AR v1)
All tracks accurately ripped
End of status report
==== Log checksum 47CE3A4BC412624A7173A7F314F6D4ADA5A0F2FA7B1DA75FEA583C247BDD4970 ====

CD2

Exact Audio Copy V1.0 beta 3 from 29. August 2011
EAC extraction logfile from 22. July 2013, 18:26
Blow / Anthems, Hill 1995 CD2
Used drive : TSSTcorpCDDVDW SH-216AB Adapter: 0 ID: 1
Read mode : Secure
Utilize accurate stream : Yes
Defeat audio cache : Yes
Make use of C2 pointers : No
Read offset correction : 6
Overread into Lead-In and Lead-Out : No
Fill up missing offset samples with silence : Yes
Delete leading and trailing silent blocks : No
Null samples used in CRC calculations : Yes
Used interface : Native Win32 interface for Win NT & 2000
Used output format : Monkey's Audio Lossless Encoder
Selected bitrate : High Lossless Compression
Quality : High
Add ID3 tag : Yes
Command line compressor : K:\Program Files (x86)\Exact Audio Copy\Monkeys Audio\Monkey's Audio\MAC.exe
Additional command line options : -6 -V -T "ARTIST=%artist%" -T "TITLE=%title%" -T "ALBUM=%albumtitle%" -T "DATE=%year%" -T "TRACKNUMBER=%tracknr%" -T "GENRE=%genre%" -T "COMMENT=%comment%" -T "BAND=%albuminterpret%" -T "ALBUMARTIST=%albuminterpret%" -T "COMPOSER=%composer%" %haslyrics%--tag-from-file=LYRICS="%lyricsfile%"%haslyrics% -T "DISCNUMBER=%cdnumber%" -T "TOTALDISCS=%totalcds%" -T "TOTALTRACKS=%numtracks%" %hascover%--picture="%coverfile%"%hascover% %source% -o %dest%
TOC of the extracted CD
Track | Start | Length | Start sector | End sector
---------------------------------------------------------
1 | 0:00.00 | 4:32.50 | 0 | 20449
2 | 4:32.50 | 6:57.00 | 20450 | 51724
3 | 11:29.50 | 13:46.45 | 51725 | 113719
4 | 25:16.20 | 5:44.00 | 113720 | 139519
5 | 31:00.20 | 6:52.32 | 139520 | 170451
6 | 37:52.52 | 9:33.20 | 170452 | 213446
7 | 47:25.72 | 10:41.08 | 213447 | 261529
Range status and errors
Selected range
Filename I:\Foobar-EAC\Blow - Anthems, Hill 1995 CD2.wav
Peak level 91.4 %
Extraction speed 3.0 X
Range quality 100.0 %
Test CRC EFEB30D5
Copy CRC EFEB30D5
Copy OK
No errors occurred
AccurateRip summary
Track 1 accurately ripped (confidence 3) [87939FC3] (AR v1)
Track 2 accurately ripped (confidence 3) [5CD2DC83] (AR v1)
Track 3 accurately ripped (confidence 3) [C705C1D3] (AR v1)
Track 4 accurately ripped (confidence 3) [EEBC4DCA] (AR v1)
Track 5 accurately ripped (confidence 3) [301DB7DC] (AR v1)
Track 6 accurately ripped (confidence 3) [512AF931] (AR v1)
Track 7 accurately ripped (confidence 3) [55B6C21A] (AR v1)
All tracks accurately ripped
End of status report
==== Log checksum 978580DB9F142654070D1CE231610F505E728E01C9F906254EBA0BD55C27CF3D ====

Содержание индексной карты (.CUE)

CD1

REM GENRE Vocal
REM DATE 1995
REM DISCID 6F0DAD07
REM COMMENT "ExactAudioCopy v1.0b3"
PERFORMER "Blow "
TITLE "Anthems, Hill 1995 CD1"
FILE "Blow - Anthems, Hill 1995 CD1.ape" WAVE
TRACK 01 AUDIO
TITLE "God spake sometime in visions"
PERFORMER "Blow "
ISRC GBAJY9503101
INDEX 01 00:00:00
TRACK 02 AUDIO
TITLE "How doth the city sit solitary"
PERFORMER "Blow "
ISRC GBAJY9503102
INDEX 00 12:20:47
INDEX 01 12:29:00
TRACK 03 AUDIO
TITLE "The Lord is my Shepherd"
PERFORMER "Blow "
ISRC GBAJY9503103
INDEX 00 18:55:22
INDEX 01 19:02:35
TRACK 04 AUDIO
TITLE "God is our hope and strength"
PERFORMER "Blow "
ISRC GBAJY9503104
INDEX 00 30:00:17
INDEX 01 30:06:62
TRACK 05 AUDIO
TITLE "I beheld and lo"
PERFORMER "Blow "
ISRC GBAJY9503105
INDEX 00 33:09:17
INDEX 01 33:14:47
TRACK 06 AUDIO
TITLE "Turn thee unto me"
PERFORMER "Blow "
ISRC GBAJY9503106
INDEX 00 43:40:47
INDEX 01 43:47:40
TRACK 07 AUDIO
TITLE "Blessed is the man"
PERFORMER "Blow "
ISRC GBAJY9503107
INDEX 00 49:37:15
INDEX 01 49:44:00

CD2

REM GENRE Vocal
REM DATE 1995
REM DISCID 630D9F07
REM COMMENT "ExactAudioCopy v1.0b3"
PERFORMER "Blow "
TITLE "Anthems, Hill 1995 CD2"
FILE "Blow - Anthems, Hill 1995 CD2.ape" WAVE
TRACK 01 AUDIO
TITLE "Lift up your heads"
PERFORMER "Blow "
ISRC GBAJY9503201
INDEX 01 00:00:00
TRACK 02 AUDIO
TITLE "O Lord I have sinned"
PERFORMER "Blow "
ISRC GBAJY9503202
INDEX 00 04:25:65
INDEX 01 04:32:50
TRACK 03 AUDIO
TITLE "O give thanks unto the Lord"
PERFORMER "Blow "
ISRC GBAJY9503203
INDEX 00 11:23:50
INDEX 01 11:29:50
TRACK 04 AUDIO
TITLE "O Lord, thou hast searched me out"
PERFORMER "Blow "
ISRC GBAJY9503204
INDEX 00 25:09:62
INDEX 01 25:16:20
TRACK 05 AUDIO
TITLE "Cry aloud and spare not"
PERFORMER "Blow "
ISRC GBAJY9503205
INDEX 00 30:54:57
INDEX 01 31:00:20
TRACK 06 AUDIO
TITLE "Lord, who shall dwell in thy tabernacle"
PERFORMER "Blow "
ISRC GBAJY9503206
INDEX 00 37:47:25
INDEX 01 37:52:52
TRACK 07 AUDIO
TITLE "I said in the cutting off of my days"
PERFORMER "Blow "
ISRC GBAJY9503207
INDEX 00 47:19:07
INDEX 01 47:25:72
[teatrix.ru].t7990.torrent 
Торрент: Зарегистрирован [ 2015-10-14 02:49 ] · 3FBC90B6301AB884689FC459EDE888F8E540FC00

Скачать .torrent

Скачать

19 KB

Статус: проверено
Скачан: 0 раз
Размер: 455 MB
terms.php



Быстрый ответ

Имя:

      
Для отправки сообщений необходимо включить JavaScript
Показать сообщения:    

Текущее время: 07-Дек 23:13

Часовой пояс: UTC + 3


Вы можете начинать темы
Вы можете отвечать на сообщения
Вы не можете редактировать свои сообщения
Вы не можете удалять свои сообщения
Вы не можете голосовать в опросах
Вы не можете прикреплять файлы к сообщениям
Вы можете скачивать файлы