(Classical) Verdi - Requiem(Anja Harteros, Elina Garanca, Jonas Kaufmann, Rene Pape - Daniel Barenboim) - 2013, APE (image+.cue) lossless


Статистика раздачи [Обновить пиров]
Размер:  340 MB   |    Зарегистрирован:  1 год 1 месяц   |    Скачан:  0 раз

Полного источника не было: 6 месяцев 4 дня

 
   
 
 
 

[Цитировать]

Verdi - Requiem(Anja Harteros, Elina Garanca, Jonas Kaufmann, Rene Pape - Daniel Barenboim)
Жанр: Classical
Страна-производитель диска: EU
Год издания диска: 2013
Издатель (лейбл): Decca
Дата записи: 27-28 august 2012
Аудиокодек: APE
Тип рипа: image+.cue
Битрейт аудио: lossless
Продолжительность: CD1-47'52" CD2-38'07"
Источник: собственный рип
Наличие сканов в содержимом раздачи: да
Треклист:
Disc: 1
1. Requiem
2. Kyrie Eleison
3. Dies Irae
4. Tuba Mirum
5. Mors Stupebit
6. Liber Scriptus
7. Quid Sum Miser
8. Rex Tremendae
9. Recordare
10. Ingemisco
11. Confutatis
12. Lacrymosa
Disc: 2
1. Offertorium - Domise Jesu Christe
2. Offertorium - Hostias
3. Sanctus
4. Agnus Dei
5. Lux Aeterna
6. Libera Me - Libera Me
7. Libera Me - Dies Irae
8. Libera Me - Requiem Aeternam
9. Libera Me - Libera Me
Исполнители:
Verdi: Requiem
Anja Harteros (soprano)
Elina Garanca (mezzo)
Jonas Kaufmann (tenor)
Rene Pape (bass)
Orchestra e coro del Teatro alla Scala , Milan
Daniel Barenboim

Лог создания рипа

G. Verdi, Messa da Requiem CD1v2.log

Exact Audio Copy V1.0 beta 3 from 29. August 2011
EAC extraction logfile from 27. November 2013, 22:32
Orchestra e Coro del Teatro alla Scala di Milano, dir. Daniel Barenboim - A. Harteros, E. Garanca, J. Kaufmann, R. Pape / G. Verdi, Messa da Requiem CD1v2
Used drive : Optiarc DVD RW AD-7561S Adapter: 1 ID: 0
Read mode : Secure
Utilize accurate stream : Yes
Defeat audio cache : Yes
Make use of C2 pointers : No
Read offset correction : 6
Overread into Lead-In and Lead-Out : No
Fill up missing offset samples with silence : Yes
Delete leading and trailing silent blocks : No
Null samples used in CRC calculations : Yes
Used interface : Native Win32 interface for Win NT & 2000
Used output format : User Defined Encoder
Selected bitrate : 768 kBit/s
Quality : High
Add ID3 tag : No
Command line compressor : C:\Program Files\Exact Audio Copy\APE\MAC.exe
Additional command line options : %source% %dest% -c3000
TOC of the extracted CD
Track | Start | Length | Start sector | End sector
---------------------------------------------------------
1 | 0:00.00 | 5:26.67 | 0 | 24516
2 | 5:26.67 | 3:36.44 | 24517 | 40760
3 | 9:03.36 | 2:26.71 | 40761 | 51781
4 | 11:30.32 | 1:57.16 | 51782 | 60572
5 | 13:27.48 | 1:28.30 | 60573 | 67202
6 | 14:56.03 | 5:07.46 | 67203 | 90273
7 | 20:03.49 | 3:50.05 | 90274 | 107528
8 | 23:53.54 | 3:57.02 | 107529 | 125305
9 | 27:50.56 | 4:20.65 | 125306 | 144870
10 | 32:11.46 | 3:51.31 | 144871 | 162226
11 | 36:03.02 | 5:37.61 | 162227 | 187562
12 | 41:40.63 | 6:09.07 | 187563 | 215244
Range status and errors
Selected range
Filename D:\Temp\Верди - Requiem - Anja Harteros, Elina Garanca, Jonas Kaufmann, Rene Pape\G. Verdi, Messa da Requiem CD1v2.wav
Peak level 99.0 %
Extraction speed 1.8 X
Range quality 100.0 %
Test CRC 9395F6D6
Copy CRC 9395F6D6
Copy OK
No errors occurred
AccurateRip summary
Track 1 accurately ripped (confidence 3) [22F98AA4] (AR v2)
Track 2 accurately ripped (confidence 3) [B87C2605] (AR v2)
Track 3 accurately ripped (confidence 3) [6D86FC00] (AR v2)
Track 4 accurately ripped (confidence 3) [78AAE7A8] (AR v2)
Track 5 accurately ripped (confidence 3) [4BDDF467] (AR v2)
Track 6 accurately ripped (confidence 3) [D5918EAC] (AR v2)
Track 7 accurately ripped (confidence 3) [F4C8C174] (AR v2)
Track 8 accurately ripped (confidence 3) [63D2A02C] (AR v2)
Track 9 accurately ripped (confidence 3) [0F4B33C5] (AR v2)
Track 10 accurately ripped (confidence 3) [E51A3DE4] (AR v2)
Track 11 accurately ripped (confidence 3) [F19E6AD9] (AR v2)
Track 12 accurately ripped (confidence 3) [5711BE66] (AR v2)
All tracks accurately ripped
End of status report
==== Log checksum C2F4FEEAC3B18188662EF4AC59D17D3052BCDA990A2942B653F79957349E9297 ====

G. Verdi, Messa da Requiem CD2v2.log

Exact Audio Copy V1.0 beta 3 from 29. August 2011
EAC extraction logfile from 27. November 2013, 23:20
Orchestra e Coro del Teatro alla Scala di Milano, dir. Daniel Barenboim - A. Harteros, E. Garanca, J. Kaufmann, R. Pape / G. Verdi, Messa da Requiem CD2v2
Used drive : Optiarc DVD RW AD-7561S Adapter: 1 ID: 0
Read mode : Secure
Utilize accurate stream : Yes
Defeat audio cache : Yes
Make use of C2 pointers : No
Read offset correction : 6
Overread into Lead-In and Lead-Out : No
Fill up missing offset samples with silence : Yes
Delete leading and trailing silent blocks : No
Null samples used in CRC calculations : Yes
Used interface : Native Win32 interface for Win NT & 2000
Used output format : User Defined Encoder
Selected bitrate : 768 kBit/s
Quality : High
Add ID3 tag : No
Command line compressor : C:\Program Files\Exact Audio Copy\APE\MAC.exe
Additional command line options : %source% %dest% -c3000
TOC of the extracted CD
Track | Start | Length | Start sector | End sector
---------------------------------------------------------
1 | 0:00.00 | 4:27.43 | 0 | 20067
2 | 4:27.43 | 5:58.33 | 20068 | 46950
3 | 10:26.01 | 2:38.26 | 46951 | 58826
4 | 13:04.27 | 5:03.05 | 58827 | 81556
5 | 18:07.32 | 6:23.50 | 81557 | 110331
6 | 24:31.07 | 2:20.56 | 110332 | 120887
7 | 26:51.63 | 2:30.37 | 120888 | 132174
8 | 29:22.25 | 3:00.56 | 132175 | 145730
9 | 32:23.06 | 5:42.41 | 145731 | 171421
Range status and errors
Selected range
Filename D:\Temp\Верди - Requiem - Anja Harteros, Elina Garanca, Jonas Kaufmann, Rene Pape\G. Verdi, Messa da Requiem CD2v2.wav
Peak level 98.0 %
Extraction speed 1.7 X
Range quality 100.0 %
Test CRC A1A6FE52
Copy CRC A1A6FE52
Copy OK
No errors occurred
AccurateRip summary
Track 1 accurately ripped (confidence 2) [C8AC96C8] (AR v2)
Track 2 accurately ripped (confidence 2) [6BC3CF08] (AR v2)
Track 3 accurately ripped (confidence 2) [4F328900] (AR v2)
Track 4 accurately ripped (confidence 2) [35EF40CC] (AR v2)
Track 5 accurately ripped (confidence 2) [C4A2B204] (AR v2)
Track 6 accurately ripped (confidence 2) [B0D3432F] (AR v2)
Track 7 accurately ripped (confidence 2) [B35C3FC6] (AR v2)
Track 8 accurately ripped (confidence 2) [A700BAD7] (AR v2)
Track 9 accurately ripped (confidence 2) [1FADF382] (AR v2)
All tracks accurately ripped
End of status report
==== Log checksum 07D85BDCBCAD446AA9643DF26684D4ED097173812FE149151CBF227A6111AFCC ====

Содержание индексной карты (.CUE)

G. Verdi, Messa da Requiem CD1v2.cue

REM GENRE Opera
REM DATE 2012
REM DISCID A40B350C
REM COMMENT "ExactAudioCopy v1.0b3"
CATALOG 0028947852469
PERFORMER "Orchestra e Coro del Teatro alla Scala di Milano, dir. Daniel Barenboim - A. ..."
TITLE "G. Verdi, Messa da Requiem CD1v2"
FILE "G. Verdi, Messa da Requiem CD1v2.ape" WAVE
TRACK 01 AUDIO
TITLE "I. Requiem - Requiem aeternam (solisti e coro)"
PERFORMER "Orchestra e Coro del Teatro alla Scala di Milano, dir. Daniel Barenboim - A. ..."
ISRC GAU@71240901
INDEX 01 00:00:00
TRACK 02 AUDIO
TITLE "I. Requiem - Kyrie eleison (solisti e coro)"
PERFORMER "Orchestra e Coro del Teatro alla Scala di Milano, dir. Daniel Barenboim - A. ..."
ISRC GAU@71240901
INDEX 01 05:26:67
TRACK 03 AUDIO
TITLE "II. Sequenza - Dies irae (coro)"
PERFORMER "Orchestra e Coro del Teatro alla Scala di Milano, dir. Daniel Barenboim - A. ..."
ISRC GAU@71240903
INDEX 01 09:03:36
TRACK 04 AUDIO
TITLE "II. Sequenza - Tuba mirum (Rene Pape e coro)"
PERFORMER "Orchestra e Coro del Teatro alla Scala di Milano, dir. Daniel Barenboim - A. ..."
ISRC GAU@71240904
INDEX 01 11:30:32
TRACK 05 AUDIO
TITLE "II. Sequenza - Mors stupebit"
PERFORMER "Orchestra e Coro del Teatro alla Scala di Milano, dir. Daniel Barenboim - A. ..."
ISRC GAU@71240905
INDEX 01 13:27:48
TRACK 06 AUDIO
TITLE "II. Sequenza - Liber scriptus (Elina Garanca e coro)"
PERFORMER "Orchestra e Coro del Teatro alla Scala di Milano, dir. Daniel Barenboim - A. ..."
ISRC GAU@71240906
INDEX 01 14:56:03
TRACK 07 AUDIO
TITLE "II. Sequenza - Quid sum miser (Anja Harteros)"
PERFORMER "Orchestra e Coro del Teatro alla Scala di Milano, dir. Daniel Barenboim - A. ..."
ISRC GAU@71240907
INDEX 01 20:03:49
TRACK 08 AUDIO
TITLE "II. Sequenza - Rex tremendae majestatis (solisti e coro)"
PERFORMER "Orchestra e Coro del Teatro alla Scala di Milano, dir. Daniel Barenboim - A. ..."
ISRC GAU@71240908
INDEX 01 23:53:54
TRACK 09 AUDIO
TITLE "II. Sequenza - Recordare (Anja Harteros e Elina Garanca)"
PERFORMER "Orchestra e Coro del Teatro alla Scala di Milano, dir. Daniel Barenboim - A. ..."
ISRC GAU@71240909
INDEX 01 27:50:56
TRACK 10 AUDIO
TITLE "II. Sequenza - Ingemisco (Jonas Kaufmann)"
PERFORMER "Orchestra e Coro del Teatro alla Scala di Milano, dir. Daniel Barenboim - A. ..."
ISRC GAU@71240910
INDEX 01 32:11:46
TRACK 11 AUDIO
TITLE "II. Sequenza - Confutatis (Rene Pape e coro)"
PERFORMER "Orchestra e Coro del Teatro alla Scala di Milano, dir. Daniel Barenboim - A. ..."
ISRC GAU@71240911
INDEX 01 36:03:02
TRACK 12 AUDIO
TITLE "II. Sequenza - Lacrimosa (solisti e coro)"
PERFORMER "Orchestra e Coro del Teatro alla Scala di Milano, dir. Daniel Barenboim - A. ..."
ISRC GAU@71240912
INDEX 01 41:40:63

G. Verdi, Messa da Requiem CD2v2.cue

REM GENRE Opera
REM DATE 2012
REM DISCID 8908ED09
REM COMMENT "ExactAudioCopy v1.0b3"
CATALOG 0028947852476
PERFORMER "Orchestra e Coro del Teatro alla Scala di Milano, dir. Daniel Barenboim - A. ..."
TITLE "G. Verdi, Messa da Requiem CD2v2"
FILE "G. Verdi, Messa da Requiem CD2v2.ape" WAVE
TRACK 01 AUDIO
TITLE "III. Offertorio - Domine Jesu Christe (solisti)"
PERFORMER "Orchestra e Coro del Teatro alla Scala di Milano, dir. Daniel Barenboim - A. ..."
ISRC GAU@71240913
INDEX 01 00:00:00
TRACK 02 AUDIO
TITLE "III. Offertorio - Hostias (solisti)"
PERFORMER "Orchestra e Coro del Teatro alla Scala di Milano, dir. Daniel Barenboim - A. ..."
ISRC GAU@71240914
INDEX 01 04:27:43
TRACK 03 AUDIO
TITLE "IV Sanctus (coro)"
PERFORMER "Orchestra e Coro del Teatro alla Scala di Milano, dir. Daniel Barenboim - A. ..."
ISRC GAU@71240915
INDEX 01 10:26:01
TRACK 04 AUDIO
TITLE "V Agnus Dei (Anja Harteros, Elina Garanca e coro)"
PERFORMER "Orchestra e Coro del Teatro alla Scala di Milano, dir. Daniel Barenboim - A. ..."
ISRC GAU@71240916
INDEX 01 13:04:27
TRACK 05 AUDIO
TITLE "VI Communio - Lux aeterna (Anja Harteros, Jonas Kaufmann e coro)"
PERFORMER "Orchestra e Coro del Teatro alla Scala di Milano, dir. Daniel Barenboim - A. ..."
ISRC GAU@71240917
INDEX 01 18:07:32
TRACK 06 AUDIO
TITLE "VII Libera me - Libera me, Domine (Anja Harteros e coro)"
PERFORMER "Orchestra e Coro del Teatro alla Scala di Milano, dir. Daniel Barenboim - A. ..."
ISRC GAU@71240918
INDEX 01 24:31:07
TRACK 07 AUDIO
TITLE "VII Libera me - Dies irae (Anja Harteros e coro)"
PERFORMER "Orchestra e Coro del Teatro alla Scala di Milano, dir. Daniel Barenboim - A. ..."
ISRC GAU@71240919
INDEX 01 26:51:63
TRACK 08 AUDIO
TITLE "VII Libera me - Requem aeternam (Anja Harteros e coro)"
PERFORMER "Orchestra e Coro del Teatro alla Scala di Milano, dir. Daniel Barenboim - A. ..."
ISRC GAU@71240920
INDEX 01 29:22:25
TRACK 09 AUDIO
TITLE "VII Libera me - Liebera me, Domine (Anja Harteros e coro)"
PERFORMER "Orchestra e Coro del Teatro alla Scala di Milano, dir. Daniel Barenboim - A. ..."
ISRC GAU@71240921
INDEX 01 32:23:06
[teatrix.ru].t7991.torrent 
Торрент: Зарегистрирован [ 2015-10-14 02:49 ] · 8280D60BEE06CC451CE2A361E8CB808EF9A1375B

Скачать .torrent

Скачать

16 KB

Статус: проверено
Скачан: 0 раз
Размер: 340 MB
terms.php



Быстрый ответ

Имя:

      
Для отправки сообщений необходимо включить JavaScript
Показать сообщения:    

Текущее время: 03-Дек 14:40

Часовой пояс: UTC + 3


Вы можете начинать темы
Вы можете отвечать на сообщения
Вы не можете редактировать свои сообщения
Вы не можете удалять свои сообщения
Вы не можете голосовать в опросах
Вы не можете прикреплять файлы к сообщениям
Вы можете скачивать файлы