(Classical, Baroque) Henry Purcell - Funeral Music For Queen Mary, Sacred Music, Dioclesian, Songs (Michael Chance, Choir Of Clare College, Cambridge) - 2001, FLAC (image+.cue) lossless


Статистика раздачи [Обновить пиров]
Размер:  522 MB   |    Зарегистрирован:  1 год 1 месяц   |    Скачан:  0 раз

Полного источника не было: 12 дней

 
   
 
 
 

[Цитировать]

Henry Purcell - Funeral Music For Queen Mary, Sacred Music, Dioclesian, Songs (Michael Chance, Choir Of Clare College, Cambridge)
Жанр: Classical, Baroque
Год издания диска: 2001
Издатель (лейбл): C Majeur / NCRV ‎/ Columns Classics
Номер по каталогу: 290170
Аудиокодек: FLAC
Тип рипа: image+.cue
Битрейт аудио: lossless
Продолжительность: 2:07;41
Источник: собственный рип
Наличие сканов в содержимом раздачи: да (только обложки)
Треклист:
CD1 [54:51]
Sacred Music
1-01 Te Deum 11:36
1-02 Jubilate Deo 7:12
1-03 My Beloved Spake 9:35
1-04 O God, Thou Art My God 3:27
1-05 Lord, How Long Wilt Thou Be Angry 3:16
1-06 Remember Not, Lord, Our Offences 2:53
1-07 Hear My Prayer, O Lord 2:06
Funeral Sentences For Queen Mary
1-08 Funeral March 2:08
1-09 Man, That Is Born Of A Woman 2:21
1-10 In The Midst Of Life 3:40
1-11 Canzona 2:24
1-12 Tou Knowest, Lord 2:51
1-13 Funeral March 1:17
CD2 [72:50]
Songs
2-01 Strike The Viol 2:27
2-02 The Queen's Epicedium 8:22
2-03 Here The Deities Approve 3:01
2-04 O Solitude 5:34
2-05 Sweeter Than Roses 3:21
2-06 Music For A While 4:06
2-07 If Music Be The Food Of Love 2:07
2-08 In The Black Dismal Dungeon Of Despair 4:10
2-09 An Evening Hymn 4:36
Instrumental Music
2-10 Chaconny In G Minor 4:40
From The Play 'Dioclesian'
2-11 First Music 2:18
2-12 Overture 4:28
2-13 1st Act Tune 1:15
2-14 Dance Of The Furies 3:35
2-15 Second Act Tune 1:30
2-16 Two In Once Upon A Ground 2:41
2-17 The Chair Dance 1:16
2-18 Third Act Tune 0:46
2-19 Butterfly Dance 2:21
2-20 Country Dance In Act 5 1:33
2-21 Dance Of The Bacchanals 1:28
2-22 Still I'm Wishing 1:55
2-23 Canaries 0:47
2-24 Dance 1:27
2-25 Dance 0:53
From The Play 'Timon Of Athens'
2-26 Curtain Tune 2:13
Исполнители:
Choir – Choir Of Clare College, Cambridge (tracks: 1-01 to 1-13)
Composed By – Henry Purcell
Conductor – Timothy Brown (3) (tracks: 1-01 to 1-13)
Countertenor Vocals – Michael Chance (tracks: 2-01 to 2-09)
Double Bass – Daniel Yeadon (tracks: 2-10 to 2-26)
Engineer – Bert Van De Wolf (tracks: 2-10 to 2-26), Nicholas Parker (tracks: 1-01 to 1-13), Tim Handley (tracks: 1-01 to 1-13)
Guitar – David Miller (7) (tracks: 2-10 to 2-26)
Harpsichord – Maggie Cole (tracks: 2-01 to 2-09), Neal Peres Da Costa (tracks: 2-10 to 2-26)
Lute [Archlute] – David Miller (7) (tracks: 2-10 to 2-26)
Orchestra – Baroque Brass Of London (tracks: 1-01 to 1-13)
Organ – Neal Peres Da Costa (tracks: 2-10 to 2-26)
Producer – Nicholas Parker (tracks: 1-01 to 1-13, 2-1 to 2-9), Ted Diehl (tracks: 2-10 to 2-26), Tim Handley (tracks: 1-01 to 1-13, 2-1 to 2-9)
Recorder – Ashley Solomon (tracks: 2-10 to 2-26), Rebecca Prosser (tracks: 2-10 to 2-26)
Theorbo – David Miller (7) (tracks: 2-10 to 2-26)
Viol – Richard Boothby (tracks: 2-01 to 2-09)
Viola – Jane Rogers (2) (tracks: 2-10 to 2-26)
Violin – Lucy Russell (tracks: 2-10 to 2-26), Rachel Podger (tracks: 2-10 to 2-26)

LOG EAC

CD1

Exact Audio Copy V1.0 beta 3 from 29. August 2011
EAC extraction logfile from 15. January 2014, 22:48
Timothy Brown / Henry Purcell - CD1 - Sacred Music - Funeral Music for Queen Mary
Used drive : ATAPI iHAS122 C Adapter: 0 ID: 1
Read mode : Secure
Utilize accurate stream : Yes
Defeat audio cache : Yes
Make use of C2 pointers : No
Read offset correction : 6
Overread into Lead-In and Lead-Out : No
Fill up missing offset samples with silence : Yes
Delete leading and trailing silent blocks : No
Null samples used in CRC calculations : Yes
Used interface : Installed external ASPI interface
Used output format : User Defined Encoder
Selected bitrate : 192 kBit/s
Quality : High
Add ID3 tag : No
Command line compressor : C:\Program Files\Exact Audio Copy\Flac\flac.exe
Additional command line options : -V -8 -T "Date=%year%" -T "Genre=%genre%" %source%
TOC of the extracted CD
Track | Start | Length | Start sector | End sector
---------------------------------------------------------
1 | 0:00.00 | 11:35.55 | 0 | 52179
2 | 11:35.55 | 7:20.10 | 52180 | 85189
3 | 18:55.65 | 9:31.40 | 85190 | 128054
4 | 28:27.30 | 3:23.52 | 128055 | 143331
5 | 31:51.07 | 3:18.33 | 143332 | 158214
6 | 35:09.40 | 2:55.47 | 158215 | 171386
7 | 38:05.12 | 2:03.55 | 171387 | 180666
8 | 40:08.67 | 2:06.33 | 180667 | 190149
9 | 42:15.25 | 2:21.72 | 190150 | 200796
10 | 44:37.22 | 3:40.35 | 200797 | 217331
11 | 48:17.57 | 2:24.00 | 217332 | 228131
12 | 50:41.57 | 2:51.58 | 228132 | 241014
13 | 53:33.40 | 1:17.67 | 241015 | 246856
Range status and errors
Selected range
Filename C:\Program Files\Exact Audio Copy\Flac\Purcell - CD1 - Sacred Music - Funeral Music for Queen Mary.wav
Peak level 96.9 %
Extraction speed 8.2 X
Range quality 99.9 %
Test CRC 1FB4A42F
Copy CRC 1FB4A42F
Copy OK
No errors occurred
AccurateRip summary
Track 1 accurately ripped (confidence 8) [8F4C8817] (AR v2)
Track 2 accurately ripped (confidence 8) [FC0BA2AE] (AR v2)
Track 3 accurately ripped (confidence 8) [1432CA7E] (AR v2)
Track 4 accurately ripped (confidence 8) [A88351AB] (AR v2)
Track 5 accurately ripped (confidence 8) [041D8F96] (AR v2)
Track 6 accurately ripped (confidence 8) [205D7499] (AR v2)
Track 7 accurately ripped (confidence 8) [FB258E4C] (AR v2)
Track 8 accurately ripped (confidence 11) [3F85B28F] (AR v2)
Track 9 accurately ripped (confidence 11) [897B1B9F] (AR v2)
Track 10 accurately ripped (confidence 11) [E7DB742A] (AR v2)
Track 11 accurately ripped (confidence 11) [4BE126F3] (AR v2)
Track 12 accurately ripped (confidence 11) [071FF152] (AR v2)
Track 13 accurately ripped (confidence 11) [65D675E4] (AR v2)
All tracks accurately ripped
End of status report
==== Log checksum 7AC3FE7565FB079C495D302C942756D24CC05C7EA910C8955184F8CF53BAE488 ====

CD2

Exact Audio Copy V1.0 beta 3 from 29. August 2011
EAC extraction logfile from 15. January 2014, 23:07
Timothy Brown / Henry Purcell - CD2 - Songs, Instrumental Music, Dioclesian
Used drive : ATAPI iHAS122 C Adapter: 0 ID: 1
Read mode : Secure
Utilize accurate stream : Yes
Defeat audio cache : Yes
Make use of C2 pointers : No
Read offset correction : 6
Overread into Lead-In and Lead-Out : No
Fill up missing offset samples with silence : Yes
Delete leading and trailing silent blocks : No
Null samples used in CRC calculations : Yes
Used interface : Installed external ASPI interface
Used output format : User Defined Encoder
Selected bitrate : 192 kBit/s
Quality : High
Add ID3 tag : No
Command line compressor : C:\Program Files\Exact Audio Copy\Flac\flac.exe
Additional command line options : -V -8 -T "Date=%year%" -T "Genre=%genre%" %source%
TOC of the extracted CD
Track | Start | Length | Start sector | End sector
---------------------------------------------------------
1 | 0:00.00 | 2:27.47 | 0 | 11071
2 | 2:27.47 | 8:22.11 | 11072 | 48732
3 | 10:49.58 | 3:00.40 | 48733 | 62272
4 | 13:50.23 | 5:33.71 | 62273 | 87318
5 | 19:24.19 | 3:21.35 | 87319 | 102428
6 | 22:45.54 | 4:05.35 | 102429 | 120838
7 | 26:51.14 | 2:07.46 | 120839 | 130409
8 | 28:58.60 | 4:09.53 | 130410 | 149137
9 | 33:08.38 | 4:36.22 | 149138 | 169859
10 | 37:44.60 | 4:40.08 | 169860 | 190867
11 | 42:24.68 | 2:17.62 | 190868 | 201204
12 | 44:42.55 | 4:27.64 | 201205 | 221293
13 | 49:10.44 | 1:14.61 | 221294 | 226904
14 | 50:25.30 | 3:34.73 | 226905 | 243027
15 | 54:00.28 | 1:29.56 | 243028 | 249758
16 | 55:30.09 | 2:41.48 | 249759 | 261881
17 | 58:11.57 | 1:16.17 | 261882 | 267598
18 | 59:27.74 | 0:45.53 | 267599 | 271026
19 | 60:13.52 | 2:20.66 | 271027 | 281592
20 | 62:34.43 | 1:33.30 | 281593 | 288597
21 | 64:07.73 | 1:27.19 | 288598 | 295141
22 | 65:35.17 | 1:54.67 | 295142 | 303758
23 | 67:30.09 | 0:47.43 | 303759 | 307326
24 | 68:17.52 | 1:27.00 | 307327 | 313851
25 | 69:44.52 | 0:52.23 | 313852 | 317774
26 | 70:37.00 | 2:13.69 | 317775 | 327818
Range status and errors
Selected range
Filename C:\Program Files\Exact Audio Copy\Flac\Purcell - CD2 - Songs, Instrumental Music, Dioclesian.wav
Peak level 100.0 %
Extraction speed 9.9 X
Range quality 100.0 %
Test CRC 68051595
Copy CRC 68051595
Copy OK
No errors occurred
AccurateRip summary
Track 1 accurately ripped (confidence 6) [CE54F80E] (AR v2)
Track 2 accurately ripped (confidence 6) [5FA94E5C] (AR v2)
Track 3 accurately ripped (confidence 6) [1CA35BA2] (AR v2)
Track 4 accurately ripped (confidence 6) [F4573A4B] (AR v2)
Track 5 accurately ripped (confidence 6) [DC9525F2] (AR v2)
Track 6 accurately ripped (confidence 6) [59BA18A4] (AR v2)
Track 7 accurately ripped (confidence 6) [6E5667D2] (AR v2)
Track 8 accurately ripped (confidence 7) [9BEB2A46] (AR v2)
Track 9 accurately ripped (confidence 6) [77CEFAD8] (AR v2)
Track 10 accurately ripped (confidence 6) [AAFE5DD3] (AR v2)
Track 11 accurately ripped (confidence 6) [56B2F570] (AR v2)
Track 12 accurately ripped (confidence 6) [11C6FEE3] (AR v2)
Track 13 accurately ripped (confidence 6) [2F6ED420] (AR v2)
Track 14 accurately ripped (confidence 6) [5029BD22] (AR v2)
Track 15 accurately ripped (confidence 6) [263FDDC7] (AR v2)
Track 16 accurately ripped (confidence 6) [28004EEB] (AR v2)
Track 17 accurately ripped (confidence 6) [4BE392D5] (AR v2)
Track 18 accurately ripped (confidence 6) [F0A0B978] (AR v2)
Track 19 accurately ripped (confidence 6) [D1FCD66E] (AR v2)
Track 20 accurately ripped (confidence 6) [B4488426] (AR v2)
Track 21 accurately ripped (confidence 6) [C19D417C] (AR v2)
Track 22 accurately ripped (confidence 6) [3AE748F0] (AR v2)
Track 23 accurately ripped (confidence 6) [A881F53D] (AR v2)
Track 24 accurately ripped (confidence 6) [097F6D3C] (AR v2)
Track 25 accurately ripped (confidence 6) [F8466283] (AR v2)
Track 26 accurately ripped (confidence 6) [6AE53C1B] (AR v2)
All tracks accurately ripped
End of status report
==== Log checksum 8DBD752A1827485C22301267E65D4378A9B250620C83CE3AE9F874357E8FCDA3 ====

Содержание индексной карты (.CUE)

CD1

REM GENRE Classical
REM DATE 2005
REM DISCID BC0CDB0D
REM COMMENT "ExactAudioCopy v1.0b3"
PERFORMER "Timothy Brown"
TITLE "Henry Purcell - CD1 - Sacred Music - Funeral Music for Queen Mary"
FILE "Purcell - CD1 - Sacred Music - Funeral Music for Queen Mary.flac" WAVE
TRACK 01 AUDIO
TITLE "Te Deum"
PERFORMER "Timothy Brown"
INDEX 01 00:00:00
TRACK 02 AUDIO
TITLE "Jubilate Deo"
PERFORMER "Timothy Brown"
INDEX 00 11:34:50
INDEX 01 11:35:55
TRACK 03 AUDIO
TITLE "My Beloved Spake"
PERFORMER "Timothy Brown"
INDEX 00 18:47:27
INDEX 01 18:55:65
TRACK 04 AUDIO
TITLE "O God Thou Art My God"
PERFORMER "Timothy Brown"
INDEX 00 28:22:57
INDEX 01 28:27:30
TRACK 05 AUDIO
TITLE "Lord, How Long Wilt Thou Be Angry"
PERFORMER "Timothy Brown"
INDEX 01 31:51:07
TRACK 06 AUDIO
TITLE "Remember Not, Lord, Our offences"
PERFORMER "Timothy Brown"
INDEX 00 35:06:61
INDEX 01 35:09:40
TRACK 07 AUDIO
TITLE "Hear My Prayer, O Lord"
PERFORMER "Timothy Brown"
INDEX 00 38:00:30
INDEX 01 38:05:12
TRACK 08 AUDIO
TITLE "Funeral Music for Queen Mary - Funeral March"
PERFORMER "Timothy Brown"
INDEX 00 40:06:72
INDEX 01 40:08:67
TRACK 09 AUDIO
TITLE "Funeral Music for Queen Mary - Man, That Is Born Of A Woman"
PERFORMER "Timothy Brown"
INDEX 01 42:15:25
TRACK 10 AUDIO
TITLE "Funeral Music for Queen Mary - In The Midst Of Life"
PERFORMER "Timothy Brown"
INDEX 01 44:37:22
TRACK 11 AUDIO
TITLE "Funeral Music for Queen Mary - Canzona"
PERFORMER "Timothy Brown"
INDEX 01 48:17:57
TRACK 12 AUDIO
TITLE "Funeral Music for Queen Mary - Thou Knowest, Lord"
PERFORMER "Timothy Brown"
INDEX 01 50:41:57
TRACK 13 AUDIO
TITLE "Funeral Music for Queen Mary - Funeral March"
PERFORMER "Timothy Brown"
INDEX 01 53:33:40

CD2

REM GENRE Classical
REM DATE 2005
REM DISCID 9E11121A
REM COMMENT "ExactAudioCopy v1.0b3"
PERFORMER "Timothy Brown "
TITLE "Henry Purcell - CD2 - Songs, Instrumental Music, Dioclesian"
FILE "Purcell - CD2 - Songs, Instrumental Music, Dioclesian.flac" WAVE
TRACK 01 AUDIO
TITLE "Songs - Strike The Viol"
PERFORMER "Timothy Brown "
INDEX 01 00:00:00
TRACK 02 AUDIO
TITLE "Songs - The Queen's Epicedium"
PERFORMER "Timothy Brown "
INDEX 00 02:26:02
INDEX 01 02:27:47
TRACK 03 AUDIO
TITLE "Songs - Here The Deities Approve"
PERFORMER "Timothy Brown "
INDEX 00 10:48:13
INDEX 01 10:49:58
TRACK 04 AUDIO
TITLE "Songs - O Solitude"
PERFORMER "Timothy Brown "
INDEX 00 13:48:53
INDEX 01 13:50:23
TRACK 05 AUDIO
TITLE "Songs - Sweeter Than Roses"
PERFORMER "Timothy Brown "
INDEX 00 19:22:49
INDEX 01 19:24:19
TRACK 06 AUDIO
TITLE "Songs - Music For A While"
PERFORMER "Timothy Brown "
INDEX 00 22:44:09
INDEX 01 22:45:54
TRACK 07 AUDIO
TITLE "Songs - If Music Be The Food Of Love"
PERFORMER "Timothy Brown "
INDEX 00 26:49:44
INDEX 01 26:51:14
TRACK 08 AUDIO
TITLE "Songs - In The Black Dismal Dungeon Of Despair"
PERFORMER "Timothy Brown "
INDEX 00 28:57:15
INDEX 01 28:58:60
TRACK 09 AUDIO
TITLE "Songs - An Evening Hymn"
PERFORMER "Timothy Brown "
INDEX 00 33:06:68
INDEX 01 33:08:38
TRACK 10 AUDIO
TITLE "Instrumental Music - Chaconny In G Minor"
PERFORMER "Timothy Brown "
INDEX 00 37:43:15
INDEX 01 37:44:60
TRACK 11 AUDIO
TITLE "Dioclesian - First Music"
PERFORMER "Timothy Brown "
INDEX 00 42:23:23
INDEX 01 42:24:68
TRACK 12 AUDIO
TITLE "Dioclesian - Overture"
PERFORMER "Timothy Brown "
INDEX 00 44:41:10
INDEX 01 44:42:55
TRACK 13 AUDIO
TITLE "Dioclesian - First Act Tune"
PERFORMER "Timothy Brown "
INDEX 00 49:08:74
INDEX 01 49:10:44
TRACK 14 AUDIO
TITLE "Dioclesian - Dance Of The Furies"
PERFORMER "Timothy Brown "
INDEX 00 50:23:60
INDEX 01 50:25:30
TRACK 15 AUDIO
TITLE "Dioclesian - Second Act Tune"
PERFORMER "Timothy Brown "
INDEX 00 53:58:58
INDEX 01 54:00:28
TRACK 16 AUDIO
TITLE "Dioclesian - Two In Once Upon A Ground"
PERFORMER "Timothy Brown "
INDEX 00 55:28:39
INDEX 01 55:30:09
TRACK 17 AUDIO
TITLE "Dioclesian - The Chair Dance"
PERFORMER "Timothy Brown "
INDEX 00 58:10:12
INDEX 01 58:11:57
TRACK 18 AUDIO
TITLE "Dioclesian - Third Act Tune"
PERFORMER "Timothy Brown "
INDEX 00 59:26:29
INDEX 01 59:27:74
TRACK 19 AUDIO
TITLE "Dioclesian - Butterfly Dance"
PERFORMER "Timothy Brown "
INDEX 00 60:12:07
INDEX 01 60:13:52
TRACK 20 AUDIO
TITLE "Dioclesian - Country Dance In Act 5"
PERFORMER "Timothy Brown "
INDEX 00 62:32:73
INDEX 01 62:34:43
TRACK 21 AUDIO
TITLE "Dioclesian - Dance Of The Bacchanals"
PERFORMER "Timothy Brown "
INDEX 00 64:06:28
INDEX 01 64:07:73
TRACK 22 AUDIO
TITLE "Dioclesian - Still I'm Wishing"
PERFORMER "Timothy Brown "
INDEX 00 65:33:47
INDEX 01 65:35:17
TRACK 23 AUDIO
TITLE "Dioclesian - Canaries"
PERFORMER "Timothy Brown "
INDEX 00 67:28:39
INDEX 01 67:30:09
TRACK 24 AUDIO
TITLE "Dioclesian - Dance"
PERFORMER "Timothy Brown "
INDEX 00 68:16:07
INDEX 01 68:17:52
TRACK 25 AUDIO
TITLE "Dioclesian - Dance"
PERFORMER "Timothy Brown "
INDEX 00 69:43:07
INDEX 01 69:44:52
TRACK 26 AUDIO
TITLE "Timon of Athens - Curtain Tune"
PERFORMER "Timothy Brown "
INDEX 00 70:35:30
INDEX 01 70:37:00
Доп. информация:
Генри Пёрселл (англ. Henry Purcell, 10 сентября 1659 (?), Лондон — 21 ноября 1695, там же) — английский композитор, представитель стиля барокко. Несмотря на включение стилистических элементов итальянской и французской музыки, наследие Пёрселла является английской формой музыки барокко. Пёрселл признаётся одним из крупнейших английских композиторов. Ни один рождённый в Англии композитор, вплоть до Эдварда Элгара, не приблизился к его славе.
mp3
[teatrix.ru].t7992.torrent 
Торрент: Зарегистрирован [ 2015-10-14 02:49 ] · 5DC0F5737444B06E590240FA25678E61DFDC7803

Скачать .torrent

Скачать

11 KB

Статус: проверено
Скачан: 0 раз
Размер: 522 MB
terms.php



Быстрый ответ

Имя:

      
Для отправки сообщений необходимо включить JavaScript
Показать сообщения:    

Текущее время: 09-Дек 14:35

Часовой пояс: UTC + 3


Вы можете начинать темы
Вы можете отвечать на сообщения
Вы не можете редактировать свои сообщения
Вы не можете удалять свои сообщения
Вы не можете голосовать в опросах
Вы не можете прикреплять файлы к сообщениям
Вы можете скачивать файлы