(Classical) Requiem - Verdi, Mozart, Brahms (Karajan, Orchestre Philharmonique de Vienne; Chalier, Orchestre de Lancy) - 2001, FLAC (image+.cue) lossless


Статистика раздачи [Обновить пиров]
Размер:  711 MB   |    Зарегистрирован:  1 год 1 месяц   |    Скачан:  0 раз

Полного источника не было: Никогда

 
   
 
 
 

[Цитировать]

Requiem - Verdi, Mozart, Brahms (Karajan, Orchestre Philharmonique de Vienne; Chalier, Orchestre de Lancy)
Жанр: Classical
Год издания диска: 2001
Издатель (лейбл): L'illustre
Номер по каталогу: APG 112
Аудиокодек: FLAC
Тип рипа: image+.cue
Битрейт аудио: lossless
Продолжительность: 3:32;23
Источник: собственный рип
Наличие сканов в содержимом раздачи: да (только обложки)
Треклист:
CD1 [74:48]
01. VERDI- Requiem & Kyrie 08:42
02. Dies irae 02:15
03. Tuba mirum 02:14
04. Mors stupebit 01:42
05. Liber scriptus 05:24
06. Quid sum miser 03:57
07. Rex tremendae 03:53
08. Recordare 04:17
09. Ingemisco 04:08
10. Confutatis 06:31
11. Lacrymosa 06:09
12. Offertorio 11:21
13. Sanctus 02:46
14. Agnus dei 05:01
15. Lux aeterna 06:29
CD 2 [62:58]
01. VERDI- Libera me, domine 13:29
02. MOZART- Introitus. Requiem 04:28
03. Kyrie 02:46
04. Sequentia. Deis Irae 02:00
05. Tuba mirum 03:54
06. Rex tremendae 01:51
07. Recordare 06:09
08. Confutatis 02:44
09. Lacrimosa 02:58
10. Offertorium. Domine Jesu 03:42
11. Hostias 04:29
12. Sanctus 01:24
13. Benedictus 04:52
14. Agnus dei 03:12
15. CommunioLux aeterna 05:01
CD 3 [74:37]
01. BRAHMS- Selis sind, die da Leid Tragen 11:34
02. Dann alles Fleisch es ist wie Gras 14:46
03. Herr, lehre doch mich 11:13
04. Wie lieblich sind deine Wohnungen 06:05
05. Ihr habt nun Traurigkeit 07:11
06. Denn wir haben hie keine bleibende Statt 12:31
07. Selig sind die Toten 11:17
Исполнители:
CD1
Hilde Zadek, soprano
Margarete Kilose, contre-alto
Helge Rovaenge, tenor
Boris Christoff, basse
Philharmonique de Vienne,
Herbert Von Karajan
CD2
Hiroko Kawamishi, soprano
Annelise Theodoloz, mezzo-soprano
Richard Williams, tenor
Stephan Imboden, basse
Orchestre de Lancy, Geneve
Alexis Chalier
CD3
Elisabeth Schwarzkopf, soprano
Hans Hotter, baryton
Orchestre Philharmonique de Vienne,
Herbert Von Karajan

LOG EAC

CD1

Exact Audio Copy V1.0 beta 3 from 29. August 2011
EAC extraction logfile from 18. January 2014, 2:25
- / REQUIEM - Verdi, Mozart, Brahms - CD1
Used drive : ATAPI iHAS122 C Adapter: 0 ID: 1
Read mode : Secure
Utilize accurate stream : Yes
Defeat audio cache : Yes
Make use of C2 pointers : No
Read offset correction : 6
Overread into Lead-In and Lead-Out : No
Fill up missing offset samples with silence : Yes
Delete leading and trailing silent blocks : No
Null samples used in CRC calculations : Yes
Used interface : Installed external ASPI interface
Used output format : User Defined Encoder
Selected bitrate : 192 kBit/s
Quality : High
Add ID3 tag : No
Command line compressor : C:\Program Files\Exact Audio Copy\Flac\flac.exe
Additional command line options : -V -8 -T "Date=%year%" -T "Genre=%genre%" %source%
TOC of the extracted CD
Track | Start | Length | Start sector | End sector
---------------------------------------------------------
1 | 0:00.00 | 8:42.02 | 0 | 39151
2 | 8:42.02 | 2:14.40 | 39152 | 49241
3 | 10:56.42 | 2:14.03 | 49242 | 59294
4 | 13:10.45 | 1:41.72 | 59295 | 66941
5 | 14:52.42 | 5:24.25 | 66942 | 91266
6 | 20:16.67 | 3:56.55 | 91267 | 109021
7 | 24:13.47 | 3:53.20 | 109022 | 126516
8 | 28:06.67 | 4:17.05 | 126517 | 145796
9 | 32:23.72 | 4:08.13 | 145797 | 164409
10 | 36:32.10 | 6:31.02 | 164410 | 193736
11 | 43:03.12 | 6:08.63 | 193737 | 221399
12 | 49:12.00 | 11:20.67 | 221400 | 272466
13 | 60:32.67 | 2:46.08 | 272467 | 284924
14 | 63:19.00 | 5:01.02 | 284925 | 307501
15 | 68:20.02 | 6:28.43 | 307502 | 336644
Range status and errors
Selected range
Filename C:\Program Files\Exact Audio Copy\Flac\REQUIEM - Verdi, Mozart, Brahms - CD1.wav
Peak level 99.9 %
Extraction speed 10.6 X
Range quality 100.0 %
Test CRC 42AD5EC6
Copy CRC 42AD5EC6
Copy OK
No errors occurred
AccurateRip summary
Track 1 cannot be verified as accurate (confidence 1) [322C0670], AccurateRip returned [7F67F661] (AR v2)
Track 2 cannot be verified as accurate (confidence 1) [752646C4], AccurateRip returned [EC626813] (AR v2)
Track 3 cannot be verified as accurate (confidence 1) [A1FE5869], AccurateRip returned [B5E85016] (AR v2)
Track 4 cannot be verified as accurate (confidence 1) [CF66DD18], AccurateRip returned [39AA8C32] (AR v2)
Track 5 cannot be verified as accurate (confidence 1) [9FF6CA09], AccurateRip returned [67B3DBC4] (AR v2)
Track 6 cannot be verified as accurate (confidence 1) [25232DC3], AccurateRip returned [AA8E823E] (AR v2)
Track 7 cannot be verified as accurate (confidence 1) [F134FDBA], AccurateRip returned [4257489F] (AR v2)
Track 8 cannot be verified as accurate (confidence 1) [70D613B7], AccurateRip returned [72898B7D] (AR v2)
Track 9 cannot be verified as accurate (confidence 1) [175DA405], AccurateRip returned [AD58BBF8] (AR v2)
Track 10 cannot be verified as accurate (confidence 1) [351220FD], AccurateRip returned [8E41115D] (AR v2)
Track 11 cannot be verified as accurate (confidence 1) [151C25D7], AccurateRip returned [CA02D956] (AR v2)
Track 12 cannot be verified as accurate (confidence 1) [83DD0272], AccurateRip returned [7B921D32] (AR v2)
Track 13 cannot be verified as accurate (confidence 1) [B739A29F], AccurateRip returned [8887CCD7] (AR v2)
Track 14 cannot be verified as accurate (confidence 1) [38BDC84C], AccurateRip returned [246D8023] (AR v2)
Track 15 cannot be verified as accurate (confidence 1) [63622DD0], AccurateRip returned [C6DF9B5C] (AR v2)
No tracks could be verified as accurate
You may have a different pressing from the one(s) in the database
End of status report
==== Log checksum 6833E987A701445FDD8145E2942FD1B9A73478F0B335C255924C1930AA9ED22C ====

CD2

Exact Audio Copy V1.0 beta 3 from 29. August 2011
EAC extraction logfile from 18. January 2014, 2:43
- / REQUIEM - Verdi, Mozart, Brahms - CD2
Used drive : ATAPI iHAS122 C Adapter: 0 ID: 1
Read mode : Secure
Utilize accurate stream : Yes
Defeat audio cache : Yes
Make use of C2 pointers : No
Read offset correction : 6
Overread into Lead-In and Lead-Out : No
Fill up missing offset samples with silence : Yes
Delete leading and trailing silent blocks : No
Null samples used in CRC calculations : Yes
Used interface : Installed external ASPI interface
Used output format : User Defined Encoder
Selected bitrate : 192 kBit/s
Quality : High
Add ID3 tag : No
Command line compressor : C:\Program Files\Exact Audio Copy\Flac\flac.exe
Additional command line options : -V -8 -T "Date=%year%" -T "Genre=%genre%" %source%
TOC of the extracted CD
Track | Start | Length | Start sector | End sector
---------------------------------------------------------
1 | 0:00.00 | 13:29.05 | 0 | 60679
2 | 13:29.05 | 4:27.54 | 60680 | 80758
3 | 17:56.59 | 2:46.01 | 80759 | 93209
4 | 20:42.60 | 2:00.32 | 93210 | 102241
5 | 22:43.17 | 3:53.56 | 102242 | 119772
6 | 26:36.73 | 1:51.27 | 119773 | 128124
7 | 28:28.25 | 6:08.51 | 128125 | 155775
8 | 34:37.01 | 2:43.51 | 155776 | 168051
9 | 37:20.52 | 2:57.67 | 168052 | 181393
10 | 40:18.44 | 3:42.08 | 181394 | 198051
11 | 44:00.52 | 4:29.30 | 198052 | 218256
12 | 48:30.07 | 1:23.54 | 218257 | 224535
13 | 49:53.61 | 4:52.07 | 224536 | 246442
14 | 54:45.68 | 3:11.56 | 246443 | 260823
15 | 57:57.49 | 5:01.11 | 260824 | 283409
Range status and errors
Selected range
Filename C:\Program Files\Exact Audio Copy\Flac\REQUIEM - Verdi, Mozart, Brahms - CD2.wav
Peak level 100.0 %
Extraction speed 9.1 X
Range quality 99.9 %
Test CRC CD9A8ABB
Copy CRC CD9A8ABB
Copy OK
No errors occurred
AccurateRip summary
Track 1 not present in database
Track 2 not present in database
Track 3 not present in database
Track 4 not present in database
Track 5 not present in database
Track 6 not present in database
Track 7 not present in database
Track 8 not present in database
Track 9 not present in database
Track 10 not present in database
Track 11 not present in database
Track 12 not present in database
Track 13 not present in database
Track 14 not present in database
Track 15 not present in database
None of the tracks are present in the AccurateRip database
End of status report
==== Log checksum 2785F52B678C934DE54A2DB4A62BCF7FE024151B7C431E53CE8348FDFFF55CE9 ====

CD3

Exact Audio Copy V1.0 beta 3 from 29. August 2011
EAC extraction logfile from 18. January 2014, 3:05
- / REQUIEM - Verdi, Mozart, Brahms - CD3
Used drive : ATAPI iHAS122 C Adapter: 0 ID: 1
Read mode : Secure
Utilize accurate stream : Yes
Defeat audio cache : Yes
Make use of C2 pointers : No
Read offset correction : 6
Overread into Lead-In and Lead-Out : No
Fill up missing offset samples with silence : Yes
Delete leading and trailing silent blocks : No
Null samples used in CRC calculations : Yes
Used interface : Installed external ASPI interface
Used output format : User Defined Encoder
Selected bitrate : 192 kBit/s
Quality : High
Add ID3 tag : No
Command line compressor : C:\Program Files\Exact Audio Copy\Flac\flac.exe
Additional command line options : -V -8 -T "Date=%year%" -T "Genre=%genre%" %source%
TOC of the extracted CD
Track | Start | Length | Start sector | End sector
---------------------------------------------------------
1 | 0:00.00 | 11:34.10 | 0 | 52059
2 | 11:34.10 | 14:45.63 | 52060 | 118497
3 | 26:19.73 | 11:12.73 | 118498 | 168970
4 | 37:32.71 | 6:04.45 | 168971 | 196315
5 | 43:37.41 | 7:11.36 | 196316 | 228676
6 | 50:49.02 | 12:31.26 | 228677 | 285027
7 | 63:20.28 | 11:16.50 | 285028 | 335777
Range status and errors
Selected range
Filename C:\Program Files\Exact Audio Copy\Flac\REQUIEM - Verdi, Mozart, Brahms - CD3.wav
Peak level 85.6 %
Extraction speed 10.5 X
Range quality 99.9 %
Test CRC D55150CF
Copy CRC D55150CF
Copy OK
No errors occurred
AccurateRip summary
Track 1 cannot be verified as accurate (confidence 1) [779A37DA], AccurateRip returned [BFAD6A10] (AR v2)
Track 2 cannot be verified as accurate (confidence 1) [04BCB138], AccurateRip returned [F3014C3E] (AR v2)
Track 3 cannot be verified as accurate (confidence 1) [FCA5DAAE], AccurateRip returned [CCDC9575] (AR v2)
Track 4 cannot be verified as accurate (confidence 1) [17C6136C], AccurateRip returned [70DD234A] (AR v2)
Track 5 cannot be verified as accurate (confidence 1) [E261FDF5], AccurateRip returned [C368E216] (AR v2)
Track 6 cannot be verified as accurate (confidence 1) [6D9E64AF], AccurateRip returned [441C88D3] (AR v2)
Track 7 cannot be verified as accurate (confidence 1) [88A93AC7], AccurateRip returned [90B43E0E] (AR v2)
No tracks could be verified as accurate
You may have a different pressing from the one(s) in the database
End of status report
==== Log checksum 7EC9C30CE32913F345BCA775A7E038300F8A5F0F6E36FEA00164A67AEA9DCC71 ====

Содержание индексной карты (.CUE)

CD1

REM GENRE Classical
REM DATE 2001
REM DISCID E711880F
REM COMMENT "ExactAudioCopy v1.0b3"
PERFORMER ""
TITLE "REQUIEM - Verdi, Mozart, Brahms - CD1"
FILE "REQUIEM - Verdi, Mozart, Brahms - CD1.flac" WAVE
TRACK 01 AUDIO
TITLE "VERDI- Requiem & Kyrie"
PERFORMER ""
FLAGS DCP
INDEX 01 00:00:00
TRACK 02 AUDIO
TITLE "Dies irae"
PERFORMER ""
FLAGS DCP
INDEX 01 08:42:02
TRACK 03 AUDIO
TITLE "Tuba mirum"
PERFORMER ""
FLAGS DCP
INDEX 01 10:56:42
TRACK 04 AUDIO
TITLE "Mors stupebit"
PERFORMER ""
FLAGS DCP
INDEX 01 13:10:45
TRACK 05 AUDIO
TITLE "Liber scriptus"
PERFORMER ""
FLAGS DCP
INDEX 01 14:52:42
TRACK 06 AUDIO
TITLE "Quid sum miser"
PERFORMER ""
FLAGS DCP
INDEX 01 20:16:67
TRACK 07 AUDIO
TITLE "Rex tremendae"
PERFORMER ""
FLAGS DCP
INDEX 01 24:13:47
TRACK 08 AUDIO
TITLE "Recordare"
PERFORMER ""
FLAGS DCP
INDEX 01 28:06:67
TRACK 09 AUDIO
TITLE "Ingemisco"
PERFORMER ""
FLAGS DCP
INDEX 01 32:23:72
TRACK 10 AUDIO
TITLE "Confutatis"
PERFORMER ""
FLAGS DCP
INDEX 01 36:32:10
TRACK 11 AUDIO
TITLE "Lacrymosa"
PERFORMER ""
FLAGS DCP
INDEX 01 43:03:12
TRACK 12 AUDIO
TITLE "Offertorio"
PERFORMER ""
FLAGS DCP
INDEX 01 49:12:00
TRACK 13 AUDIO
TITLE "Sanctus"
PERFORMER ""
FLAGS DCP
INDEX 01 60:32:67
TRACK 14 AUDIO
TITLE "Agnus dei"
PERFORMER ""
FLAGS DCP
INDEX 01 63:19:00
TRACK 15 AUDIO
TITLE "Lux aeterna"
PERFORMER ""
FLAGS DCP
INDEX 01 68:20:02

CD2

REM GENRE Classical
REM DATE 2001
REM DISCID DA0EC20F
REM COMMENT "ExactAudioCopy v1.0b3"
PERFORMER ""
TITLE "REQUIEM - Verdi, Mozart, Brahms - CD2"
FILE "REQUIEM - Verdi, Mozart, Brahms - CD2.flac" WAVE
TRACK 01 AUDIO
TITLE "VERDI- Libera me, domine"
PERFORMER ""
FLAGS DCP
INDEX 01 00:00:00
TRACK 02 AUDIO
TITLE "MOZART- Introitus. Requiem"
PERFORMER ""
FLAGS DCP
INDEX 00 13:27:06
INDEX 01 13:29:05
TRACK 03 AUDIO
TITLE "Kyrie"
PERFORMER ""
FLAGS DCP
INDEX 00 17:54:60
INDEX 01 17:56:59
TRACK 04 AUDIO
TITLE "Sequentia. Deis Irae"
PERFORMER ""
FLAGS DCP
INDEX 00 20:40:61
INDEX 01 20:42:60
TRACK 05 AUDIO
TITLE "Tuba mirum"
PERFORMER ""
FLAGS DCP
INDEX 00 22:41:18
INDEX 01 22:43:17
TRACK 06 AUDIO
TITLE "Rex tremendae"
PERFORMER ""
FLAGS DCP
INDEX 00 26:34:74
INDEX 01 26:36:73
TRACK 07 AUDIO
TITLE "Recordare"
PERFORMER ""
FLAGS DCP
INDEX 00 28:26:26
INDEX 01 28:28:25
TRACK 08 AUDIO
TITLE "Confutatis"
PERFORMER ""
FLAGS DCP
INDEX 00 34:35:02
INDEX 01 34:37:01
TRACK 09 AUDIO
TITLE "Lacrimosa"
PERFORMER ""
FLAGS DCP
INDEX 00 37:18:53
INDEX 01 37:20:52
TRACK 10 AUDIO
TITLE "Offertorium. Domine Jesu"
PERFORMER ""
FLAGS DCP
INDEX 00 40:16:45
INDEX 01 40:18:44
TRACK 11 AUDIO
TITLE "Hostias"
PERFORMER ""
FLAGS DCP
INDEX 00 43:58:53
INDEX 01 44:00:52
TRACK 12 AUDIO
TITLE "Sanctus"
PERFORMER ""
FLAGS DCP
INDEX 00 48:28:08
INDEX 01 48:30:07
TRACK 13 AUDIO
TITLE "Benedictus"
PERFORMER ""
FLAGS DCP
INDEX 00 49:51:62
INDEX 01 49:53:61
TRACK 14 AUDIO
TITLE "Agnus dei"
PERFORMER ""
FLAGS DCP
INDEX 00 54:43:69
INDEX 01 54:45:68
TRACK 15 AUDIO
TITLE "CommunioLux aeterna"
PERFORMER ""
FLAGS DCP
INDEX 00 57:55:50
INDEX 01 57:57:49

CD3

REM GENRE Classical
REM DATE 2001
REM DISCID 5B117D07
REM COMMENT "ExactAudioCopy v1.0b3"
PERFORMER ""
TITLE "REQUIEM - Verdi, Mozart, Brahms - CD3"
FILE "REQUIEM - Verdi, Mozart, Brahms - CD3.flac" WAVE
TRACK 01 AUDIO
TITLE "BRAHMS- Selis sind, die da Leid Tragen"
PERFORMER ""
FLAGS DCP
INDEX 01 00:00:00
TRACK 02 AUDIO
TITLE "Dann alles Fleisch es ist wie Gras"
PERFORMER ""
FLAGS DCP
INDEX 00 11:32:40
INDEX 01 11:34:10
TRACK 03 AUDIO
TITLE "Herr, lehre doch mich"
PERFORMER ""
FLAGS DCP
INDEX 00 26:18:28
INDEX 01 26:19:73
TRACK 04 AUDIO
TITLE "Wie lieblich sind deine Wohnungen"
PERFORMER ""
FLAGS DCP
INDEX 00 37:31:26
INDEX 01 37:32:71
TRACK 05 AUDIO
TITLE "Ihr habt nun Traurigkeit"
PERFORMER ""
FLAGS DCP
INDEX 00 43:35:71
INDEX 01 43:37:41
TRACK 06 AUDIO
TITLE "Denn wir haben hie keine bleibende Statt"
PERFORMER ""
FLAGS DCP
INDEX 00 50:47:32
INDEX 01 50:49:02
TRACK 07 AUDIO
TITLE "Selig sind die Toten"
PERFORMER ""
FLAGS DCP
INDEX 00 63:18:58
INDEX 01 63:20:28
mp3
[teatrix.ru].t7993.torrent 
Торрент: Зарегистрирован [ 2015-10-14 02:49 ] · 900E55CC27DF0DECFF1BE56DB06E2E6DD054FCE0

Скачать .torrent

Скачать

15 KB

Статус: проверено
Скачан: 0 раз
Размер: 711 MB
terms.php



Быстрый ответ

Имя:

      
Для отправки сообщений необходимо включить JavaScript
Показать сообщения:    

Текущее время: 04-Дек 04:59

Часовой пояс: UTC + 3


Вы можете начинать темы
Вы можете отвечать на сообщения
Вы не можете редактировать свои сообщения
Вы не можете удалять свои сообщения
Вы не можете голосовать в опросах
Вы не можете прикреплять файлы к сообщениям
Вы можете скачивать файлы