(Baroque Oratorio) Carissimi - Jepthah-The Judgement of Solomon-Jonah (Hemington Jones, Bonner, Coxwell, Ainsley, Smith, Ewing - Gabrieli Consort and Players, Paul McCreesh) - 2008, FLAC (image+.cue) lossless

DL-List and Torrent activity [Update пиров]
Size:  242 MB   |    Registered:  1 year   |    Completed:  0 times

Seeder not seen: Never



Carissimi - Jepthah-The Judgement of Solomon-Jonah
Жанр: Baroque Oratorio
Страна-производитель диска: EU
Год издания диска: 2008
Издатель (лейбл): Brilliant Classics
Номер по каталогу: 93725
Дата записи: 1995
Аудиокодек: FLAC
Тип рипа: image+.cue
Битрейт аудио: lossless
Продолжительность: 53'00
Источник: собственный рип
Наличие сканов в содержимом раздачи: да
1. Jephte, oratorio for 6 voices & continuo 23:02
2. Judicium Salomonis, oratorio for 4 voices, 2 violins & continuo 10:56
3. Jonas, oratorio for soloists, 5 voices, 2 violins & continuo 19:28Исполнители:
Iacomo Carissimi (1603-1674) - Jepthah - The Judgement of Solomon - Jonah
Susan Hemington Jones, soprano
Tessa Bonner soprano
Janet Coxwell soprano
John Mark Ainsley, tenor
Nicolas Robertson tenor
Robert Wilson tenor
Angus Smith tenor
Alan Ewing, bass
Peter Harvey, bass
Gabrieli Consort and Players, Paul McCreesh

Лог создания рипа

Exact Audio Copy V1.0 beta 3 from 29. August 2011
EAC extraction logfile from 15. January 2014, 18:17
Carissimi / Jephthah - The Judgement of Solomon - Jonah, , Paul McCreesh
Used drive : TSSTcorpCDDVDW SH-216AB Adapter: 0 ID: 2
Read mode : SecureUtilize accurate stream : YesDefeat audio cache : YesMake use of C2 pointers : No
Read offset correction : 6Overread into Lead-In and Lead-Out : NoFill up missing offset samples with silence : YesDelete leading and trailing silent blocks : NoNull samples used in CRC calculations : YesUsed interface : Native Win32 interface for Win NT & 2000
Used output format : User Defined EncoderSelected bitrate : 896 kBit/sQuality : HighAdd ID3 tag : YesCommand line compressor : C:\Program Files (x86)\Exact Audio Copy\FLAC\FLAC.EXEAdditional command line options : -6 -V -T "ARTIST=%artist%" -T "TITLE=%title%" -T "ALBUM=%albumtitle%" -T "DATE=%year%" -T "TRACKNUMBER=%tracknr%" -T "GENRE=%genre%" -T "COMMENT=%comment%" -T "BAND=%albuminterpret%" -T "ALBUMARTIST=%albuminterpret%" -T "COMPOSER=%composer%" %haslyrics%--tag-from-file=LYRICS="%lyricsfile%"%haslyrics% -T "DISCNUMBER=%cdnumber%" -T "TOTALDISCS=%totalcds%" -T "TOTALTRACKS=%numtracks%" %hascover%--picture="%coverfile%"%hascover% %source% -o %dest%
TOC of the extracted CD
Track | Start | Length | Start sector | End sector --------------------------------------------------------- 1 | 0:00.00 | 23:02.00 | 0 | 103649 2 | 23:02.00 | 10:56.00 | 103650 | 152849 3 | 33:58.00 | 19:29.00 | 152850 | 240524
Range status and errors
Selected range
Filename E:\Foobar-EAC\Carissimi - Jephthah - The Judgement of Solomon - Jonah, , Paul McCreesh.wav
Peak level 100.0 % Extraction speed 2.9 X Range quality 100.0 % Test CRC FA5A0054 Copy CRC FA5A0054 Copy OK
No errors occurred
AccurateRip summary
Track 1 accurately ripped (confidence 2) [A5657B18] (AR v1)Track 2 accurately ripped (confidence 2) [663C6544] (AR v1)Track 3 accurately ripped (confidence 2) [07AAADAE] (AR v1)
All tracks accurately ripped
End of status report
---- CUETools DB Plugin V2.1.3
[CTDB TOCID: rjVwMnkXdgXzX5O0rooFaA9azaE-] found, Submit result: database access error: ExpectationFailed[88f8c56c] (2/2) Accurately ripped
==== Log checksum FC4162F163E886CD972FBA11CE8B50B3B03FCAB954B297BF23CF52A61A484500 ====

Содержание индексной карты (.CUE)

REM GENRE OratorioREM DATE 1995REM DISCID 180C8703REM COMMENT "ExactAudioCopy v1.0b3"PERFORMER "Carissimi"TITLE "Jephthah - The Judgement of Solomon - Jonah, , Paul McCreesh"FILE "Carissimi - Jephthah - The Judgement of Solomon - Jonah, , Paul McCreesh.flac" WAVE TRACK 01 AUDIO TITLE "Jepthe" PERFORMER "Gabrieli Consort & Players" INDEX 01 00:00:00 TRACK 02 AUDIO TITLE "Judicium Salomonis" PERFORMER "Gabrieli Consort & Players" INDEX 01 23:02:00 TRACK 03 AUDIO TITLE "Jonas" PERFORMER "Gabrieli Consort & Players" INDEX 01 33:58:00
Доп. информация:
This disc marked the recording debut of an ensemble who are now one of the biggest names in early music.
It showcases many names that would subsequently carve out their own careers as solo singers, both with McCreesh and far further afield: John Mark Ainsley, Peter Harvey and Alan Ewing to name but three.
The performances were prepared with the editorial and technical assistance of Graham Dixon, an expert in the field of Italian Renaissance and Baroque music.
These oratorios are small in duration but not ambition or scale: powerful Biblical narratives are the hooks on which Carissimi hangs arias full of poignant word-painting, dramatic ensembles and masterful contrapuntal choruses.
The effect is madrigalian rather than Handelian and the text is more sensitively conveyed.
The rich continuo resources of the ensemble-chamber organ and double harp, chitarrone, archlute and bass violin-well captured on this recording, effectively point up and characterize the dramatic quality of Carissimi's music.
Torrent: Registered [ 2015-10-14 02:49 ] · 442FA1F535A69E81F92468E2F7B601417C973327

Download .torrent


20 KB

Status: checked
Completed: 0 times
Size: 242 MB

Quick Reply


Heads necessary to send messages to enable JavaScript
Display posts:    

Current time is: 27-Oct 04:01

All times are UTC + 3

You can post new topics in this forum
You can reply to topics in this forum
You cannot edit your posts in this forum
You cannot delete your posts in this forum
You cannot vote in polls in this forum
You cannot attach files in this forum
You can download files in this forum