(Sacred) Pergolesi - Stabat Mater, Magnificat, Salve Regina, Miserere; Lotti & Caldara - Crucifixus (Franco Caracciolo, Christopher Hogwood, Bernard Rose, David Willcocks, George Guest) - 1997, FLAC (image+.cue) lossless


Статистика раздачи [Обновить пиров]
Размер:  617 MB   |    Зарегистрирован:  1 год 1 месяц   |    Скачан:  2 раза

Полного источника не было: 29 дней

 
   
 
 
 

[Цитировать]

Giovanni Pergolesi - Stabat Mater, Magnificat, Salve Regina, Miserere II
Antonio Lotti - Crucifixus | Antonio Caldara - Crucifixus
Жанр: Sacred
Страна-производитель диска: Germany
Год издания диска: 1997
Издатель (лейбл): Decca
Номер по каталогу: 455 017-2
Дата записи: 1965-1989
Аудиокодек: FLAC
Тип рипа: image+.cue
Битрейт аудио: lossless
Продолжительность: 2:05:50
Источник: собственный рип
Наличие сканов в содержимом раздачи: да

Треклист и исполнителиCD1

Giovanni Pergolesi - Stabat mater, for soprano, alto, strings & organ in F major
1. Stabat mater dolorosa 4:41
2. Cujus animam gementem 2:56
3. O quam tristis 2:23
4. Quae morebat et dolebat 2:37
5. Quis est homo 3:05
6. Vidit suum dulcem natum 3:42
7. Eia mater fons amoris 2:38
8. Fac ut ardeat 2:21
9. Sancta mater 6:17
10. Fac ut portem 3:32
11. Inflammatus et accensus 2:23
12. Quando corpus morietur. Amen 4:43
Judith Raskin - soprano
Maureen Lehane - contralto
Orchestra Rossini Di Napoli
Franco Caracciolo - conductor

Magnificat in C major (edited by Stroh & Red)
13. Magnificat 2:48
14. Et misericordia 1:44
15. Deposuit Potentes 1:47
16. Suscepit Israel 1:50
17. Sicut locutus est....Gloria 3:34
Elizabeth Vaughan - soprano
Janet Baker - contralto
Ian Partridge - tenor
Christopher Keyte - bass
The Choir of King's College, Cambridge
Academy of St. Martin in the Fields
David Willcocks - conductor

Salve Regina, for (mezzo-)soprano, strings & organ in C minor
18. Salve Regina 3:37
19. Ad te clamamus 4:16
20. Eja ergo 1:45
21. Et Jesum 2:44
22. O clemens 1:41
Emma Kirkby - soprano
The Academy of Ancient Music
Christopher Hogwood - conductor

CD2

Miserere II in C minor
1. Miserere mei, Deus 3:37
2. Et secundum multitudinem 5:54
3. Tibi soli peccavi 3:02
4. Ecce enim in inquitatibus 2:57
5. Ecce enim veritatem dilexisti 1:24
6. Apserges me hyssopo 3:44
7. Auditui meo 2:44
8. Averte faciem tuam 2:59
9. Cor mundum crea in me, Deus 3:05
10. Ne projicias me a facie tua 5:20
11. Domine labia mea aperies 2:51
12. Quoniam si voluisses 1:22
13. Sacrificium Deo 1:58
14. Benigne fac 4:40
15. Deo Tunc acceptabis 3:46
Ilse Wolf - soprano
David James - countertenor
Rogers Covey-Crump - tenor
Richard Suart - bass
Choir of Magdalen College, Oxford
The Wren Orchestra
Bernard Rose - conductor

16. Antonio Lotti: Crucifixus (8vv) 3:34
17. Antonio Caldara: Crucifixus 4:48
Choir Of St. John's College, Cambridge
Philomusica of London
George Guest - conductor

Лог создания рипа

Лог создания рипа CD1

Exact Audio Copy V1.0 beta 3 from 29. August 2011
EAC extraction logfile from 6. January 2014, 18:21
Christopher Hogwood / Sabat Mater - Magnificat - Salve Regina
Used drive : TSSTcorp CDDVDW Adapter: 0 ID: 0
Read mode : Secure
Utilize accurate stream : Yes
Defeat audio cache : Yes
Make use of C2 pointers : No
Read offset correction : 6
Overread into Lead-In and Lead-Out : No
Fill up missing offset samples with silence : Yes
Delete leading and trailing silent blocks : No
Null samples used in CRC calculations : Yes
Used interface : Installed external ASPI interface
Used output format : User Defined Encoder
Selected bitrate : 768 kBit/s
Quality : High
Add ID3 tag : No
Command line compressor : C:\Program Files (x86)\Exact Audio Copy\FLAC\FLAC.EXE
Additional command line options : -6 -V -T "ARTIST=%artist%" -T "TITLE=%title%" -T "ALBUM=%albumtitle%" -T "DATE=%year%" -T "TRACKNUMBER=%tracknr%" -T "GENRE=%genre%" -T "COMMENT=%comment%" -T "BAND=%albuminterpret%" -T "ALBUMARTIST=%albuminterpret%" -T "COMPOSER=%composer%" %haslyrics%--tag-from-file=LYRICS="%lyricsfile%"%haslyrics% -T "DISCNUMBER=%cdnumber%" -T "TOTALDISCS=%totalcds%" -T "TOTALTRACKS=%numtracks%" %hascover%--picture="%coverfile%"%hascover% %source% -o %dest%
TOC of the extracted CD
Track | Start | Length | Start sector | End sector
---------------------------------------------------------
1 | 0:00.32 | 4:41.43 | 32 | 21149
2 | 4:42.00 | 2:56.07 | 21150 | 34356
3 | 7:38.07 | 2:23.15 | 34357 | 45096
4 | 10:01.22 | 2:37.38 | 45097 | 56909
5 | 12:38.60 | 3:05.47 | 56910 | 70831
6 | 15:44.32 | 3:42.40 | 70832 | 87521
7 | 19:26.72 | 2:38.60 | 87522 | 99431
8 | 22:05.57 | 2:21.53 | 99432 | 110059
9 | 24:27.35 | 6:17.72 | 110060 | 138406
10 | 30:45.32 | 3:32.55 | 138407 | 154361
11 | 34:18.12 | 2:23.38 | 154362 | 165124
12 | 36:41.50 | 4:52.00 | 165125 | 187024
13 | 41:33.50 | 2:48.55 | 187025 | 199679
14 | 44:22.30 | 1:44.00 | 199680 | 207479
15 | 46:06.30 | 1:47.65 | 207480 | 215569
16 | 47:54.20 | 1:50.37 | 215570 | 223856
17 | 49:44.57 | 3:44.10 | 223857 | 240666
18 | 53:28.67 | 3:37.60 | 240667 | 257001
19 | 57:06.52 | 4:16.33 | 257002 | 276234
20 | 61:23.10 | 1:45.35 | 276235 | 284144
21 | 63:08.45 | 2:44.02 | 284145 | 296446
22 | 65:52.47 | 1:41.10 | 296447 | 304031
Range status and errors
Selected range
Filename C:\RIP\Pergolesi - Stabat Mater & Miserere, CD1.wav
Peak level 97.3 %
Extraction speed 3.3 X
Range quality 100.0 %
Test CRC 2D8429DA
Copy CRC 2D8429DA
Copy OK
No errors occurred
AccurateRip summary
Track 1 cannot be verified as accurate (confidence 2) [575B0083], AccurateRip returned [BA7100E3] (AR v2)
Track 2 cannot be verified as accurate (confidence 2) [C425C57E], AccurateRip returned [33C9C7CD] (AR v2)
Track 3 cannot be verified as accurate (confidence 2) [16B0D19F], AccurateRip returned [A33EC909] (AR v2)
Track 4 cannot be verified as accurate (confidence 2) [6B8FBF62], AccurateRip returned [5D06F717] (AR v2)
Track 5 cannot be verified as accurate (confidence 2) [4268E099], AccurateRip returned [08A03B49] (AR v2)
Track 6 cannot be verified as accurate (confidence 2) [EA2B1734], AccurateRip returned [0C33E696] (AR v2)
Track 7 cannot be verified as accurate (confidence 2) [18F9B2C6], AccurateRip returned [3B831989] (AR v2)
Track 8 cannot be verified as accurate (confidence 2) [7E041550], AccurateRip returned [BDC63AD6] (AR v2)
Track 9 cannot be verified as accurate (confidence 2) [C3C1E9A6], AccurateRip returned [7CA97B98] (AR v2)
Track 10 cannot be verified as accurate (confidence 2) [F5C222DD], AccurateRip returned [B0E2237D] (AR v2)
Track 11 cannot be verified as accurate (confidence 2) [90A525E0], AccurateRip returned [AE6F55F0] (AR v2)
Track 12 cannot be verified as accurate (confidence 2) [BB1ABC4D], AccurateRip returned [914E7247] (AR v2)
Track 13 cannot be verified as accurate (confidence 2) [0D230357], AccurateRip returned [145341F0] (AR v2)
Track 14 cannot be verified as accurate (confidence 2) [4B8B42CD], AccurateRip returned [47D81432] (AR v2)
Track 15 cannot be verified as accurate (confidence 2) [409F9B8F], AccurateRip returned [C985A49C] (AR v2)
Track 16 cannot be verified as accurate (confidence 2) [A41A5113], AccurateRip returned [403B6CF2] (AR v2)
Track 17 cannot be verified as accurate (confidence 2) [380E4341], AccurateRip returned [B5D835EB] (AR v2)
Track 18 cannot be verified as accurate (confidence 2) [54205D59], AccurateRip returned [DD963AD1] (AR v2)
Track 19 cannot be verified as accurate (confidence 2) [761E1C0A], AccurateRip returned [9D121102] (AR v2)
Track 20 cannot be verified as accurate (confidence 2) [91EBE441], AccurateRip returned [DA5D60D3] (AR v2)
Track 21 cannot be verified as accurate (confidence 2) [420BFADC], AccurateRip returned [45A4F036] (AR v2)
Track 22 cannot be verified as accurate (confidence 2) [1AA61824], AccurateRip returned [348F5F54] (AR v2)
No tracks could be verified as accurate
You may have a different pressing from the one(s) in the database
End of status report
==== Log checksum B99F52AB257B881A83392629BF5719ED0CC5514B1F848928E59D205F57F6496B ====

Лог создания рипа CD2

Exact Audio Copy V1.0 beta 3 from 29. August 2011
EAC extraction logfile from 6. January 2014, 16:59
The Choir of Magdalen College / Stabat Mater, Miserere etc, CD2
Used drive : TSSTcorp CDDVDW Adapter: 0 ID: 0
Read mode : Secure
Utilize accurate stream : Yes
Defeat audio cache : Yes
Make use of C2 pointers : No
Read offset correction : 6
Overread into Lead-In and Lead-Out : No
Fill up missing offset samples with silence : Yes
Delete leading and trailing silent blocks : No
Null samples used in CRC calculations : Yes
Used interface : Installed external ASPI interface
Used output format : User Defined Encoder
Selected bitrate : 768 kBit/s
Quality : High
Add ID3 tag : No
Command line compressor : C:\Program Files (x86)\Exact Audio Copy\FLAC\FLAC.EXE
Additional command line options : -6 -V -T "ARTIST=%artist%" -T "TITLE=%title%" -T "ALBUM=%albumtitle%" -T "DATE=%year%" -T "TRACKNUMBER=%tracknr%" -T "GENRE=%genre%" -T "COMMENT=%comment%" -T "BAND=%albuminterpret%" -T "ALBUMARTIST=%albuminterpret%" -T "COMPOSER=%composer%" %haslyrics%--tag-from-file=LYRICS="%lyricsfile%"%haslyrics% -T "DISCNUMBER=%cdnumber%" -T "TOTALDISCS=%totalcds%" -T "TOTALTRACKS=%numtracks%" %hascover%--picture="%coverfile%"%hascover% %source% -o %dest%
TOC of the extracted CD
Track | Start | Length | Start sector | End sector
---------------------------------------------------------
1 | 0:00.32 | 3:40.53 | 32 | 16584
2 | 3:41.10 | 5:54.42 | 16585 | 43176
3 | 9:35.52 | 3:04.60 | 43177 | 57036
4 | 12:40.37 | 2:57.33 | 57037 | 70344
5 | 15:37.70 | 1:24.45 | 70345 | 76689
6 | 17:02.40 | 3:44.15 | 76690 | 93504
7 | 20:46.55 | 2:44.15 | 93505 | 105819
8 | 23:30.70 | 2:59.60 | 105820 | 119304
9 | 26:30.55 | 3:05.20 | 119305 | 133199
10 | 29:36.00 | 5:20.32 | 133200 | 157231
11 | 34:56.32 | 2:51.60 | 157232 | 170116
12 | 37:48.17 | 1:22.28 | 170117 | 176294
13 | 39:10.45 | 1:58.47 | 176295 | 185191
14 | 41:09.17 | 4:40.20 | 185192 | 206211
15 | 45:49.37 | 3:55.30 | 206212 | 223866
16 | 49:44.67 | 3:44.00 | 223867 | 240666
17 | 53:28.67 | 4:48.33 | 240667 | 262299
Range status and errors
Selected range
Filename C:\RIP\Pergolesi - Stabat Mater & Miserere, CD2.wav
Peak level 100.0 %
Extraction speed 2.9 X
Range quality 100.0 %
Test CRC 758E04F5
Copy CRC 758E04F5
Copy OK
No errors occurred
AccurateRip summary
Track 1 cannot be verified as accurate (confidence 2) [2634FAFF], AccurateRip returned [B36DF8D1] (AR v2)
Track 2 cannot be verified as accurate (confidence 2) [E51F21EA], AccurateRip returned [11C7F835] (AR v2)
Track 3 cannot be verified as accurate (confidence 2) [3D50DC1B], AccurateRip returned [529B815B] (AR v2)
Track 4 cannot be verified as accurate (confidence 2) [F4F4C86C], AccurateRip returned [7149357B] (AR v2)
Track 5 cannot be verified as accurate (confidence 2) [A0367D7E], AccurateRip returned [0C0E2D23] (AR v2)
Track 6 cannot be verified as accurate (confidence 2) [5BCCAD3F], AccurateRip returned [A44FB6B3] (AR v2)
Track 7 cannot be verified as accurate (confidence 2) [73822C66], AccurateRip returned [53E289E0] (AR v2)
Track 8 cannot be verified as accurate (confidence 2) [ABCAA542], AccurateRip returned [21F88B64] (AR v2)
Track 9 cannot be verified as accurate (confidence 2) [CB91B1FA], AccurateRip returned [43C49313] (AR v2)
Track 10 cannot be verified as accurate (confidence 2) [8C5BFE0B], AccurateRip returned [3F9A22EF] (AR v2)
Track 11 cannot be verified as accurate (confidence 2) [E155C099], AccurateRip returned [1CD6B2DB] (AR v2)
Track 12 cannot be verified as accurate (confidence 2) [0C874F59], AccurateRip returned [B241D624] (AR v2)
Track 13 cannot be verified as accurate (confidence 2) [3A7834DF], AccurateRip returned [32E8FCA2] (AR v2)
Track 14 cannot be verified as accurate (confidence 2) [34011C7F], AccurateRip returned [DEF2DF3D] (AR v2)
Track 15 cannot be verified as accurate (confidence 2) [8D9A4387], AccurateRip returned [AC66E7F0] (AR v2)
Track 16 cannot be verified as accurate (confidence 2) [91B7007F], AccurateRip returned [323C06A3] (AR v2)
Track 17 cannot be verified as accurate (confidence 2) [10E846D6], AccurateRip returned [55113BB2] (AR v2)
No tracks could be verified as accurate
You may have a different pressing from the one(s) in the database
End of status report
==== Log checksum C8AE4443CB66392866618A1A61B0D8D136B4B87C616D43A5209969F1BBEB4F18 ====
Дополнительная информация: Записи, представленные на дисках, частично дублируют другой двойной CD из серии Double Decca (а именно, Magnificat Перголези и Crucifixus Лотти и Кальдары).
[teatrix.ru].t7995.torrent 
Торрент: Зарегистрирован [ 2015-10-14 02:49 ] · 373D84BC3A989992330702DF06A510AD1B3EC193

Скачать .torrent

Скачать

14 KB

Статус: проверено
Скачан: 2 раз
Размер: 617 MB
terms.php



Быстрый ответ

Имя:

      
Для отправки сообщений необходимо включить JavaScript
Показать сообщения:    

Текущее время: 05-Дек 05:30

Часовой пояс: UTC + 3


Вы можете начинать темы
Вы можете отвечать на сообщения
Вы не можете редактировать свои сообщения
Вы не можете удалять свои сообщения
Вы не можете голосовать в опросах
Вы не можете прикреплять файлы к сообщениям
Вы можете скачивать файлы