(Classical, sacred) O Magnum Mysterium: Josquin, Finck, Ockeghem, Gombert, Brumel, Isaac, Dufay - Schola Cantorum Stuttgart, Clytus Gottwald - 4CD - 2011, FLAC (image+.cue) lossless


Статистика раздачи [Обновить пиров]
Размер:  1.05 GB   |    Зарегистрирован:  1 год 1 месяц   |    Скачан:  0 раз

Полного источника не было: 2 месяца 25 дней

 
   
 
 
 

[Цитировать]

O Magnum Mysterium: Josquin, Finck, Ockeghem, Gombert, Brumel, Isaac, Dufay - Schola Cantorum Stuttgart, Clytus Gottwald
Жанр: Classical, sacred
Год издания диска: 2011
Издатель (лейбл): Brilliant Classics
Номер по каталогу: 94267
Дата записи: 1971-1988
Аудиокодек: FLAC
Тип рипа: image+.cue
Битрейт аудио: lossless
Продолжительность: 4:42:58
Источник: собственный рип
Наличие сканов в содержимом раздачи: да
Треклист:
O Magnum Mysterium
Renaissance Flemish Polyphonists, between 1400-1500

CD1

Guillaume Dufay (1400-1474)
[1]-[5] Missa 'Ecce ancilla Domini' (1463) for 4 voices
Johannes Ockeghem (1420-1495)
[6]-[10] Missa pro defunctis for 2 to 4 voices

CD2

Johannes Ockeghem
[1]-[6] Missa prolationum for 4 voices
Josquin Desprez (1440-1521)
[7]-[12] Missa 'Da pacem' for 2 to 4 voices

CD3

Heinrich Finck (1445-1527)
[1] Sanctus (from Missa sex vocum, 1512)
Johannes Ockeghem
[2]-[7] Missa cuiusvis toni for 4 voices
Josquin Desprez (1440-1521)
[8]-[12] Missa super 'Malheur me bat' for 4 to 6 voices

CD4

Nicolas Gombert (d.c.1556)
[1] Musae Jovis ter maximi
6-part motet on the death of Josquin Desprez
Antoine Brumel (1460-1520)
[2]-[6] Missa 'Et ecce terrae motus' for 12 voices
Heinrich Isaac (1450-1517)
[7]-[11] Missa paschalis for 6 voices
CD-ROM содержит буклет (pdf), а также некоторые материалы, которые я не включил в раздачу ввиду их ненужности (Adobe Acrobat, автоматическая показывалка буклета).
Исполнители:
Schola Cantorum Stuttgart
Clytus Gottwald

Лог создания рипа: CD1

Exact Audio Copy V1.0 beta 3 from 29. August 2011
EAC extraction logfile from 30. October 2013, 16:50
Schola Cantorum Stuttgart, Clytus Gottwald / O Magnum Mysterium - CD1
Used drive : HL-DT-STDVDRRW GWA-4164B Adapter: 5 ID: 0
Read mode : SecureUtilize accurate stream : YesDefeat audio cache : YesMake use of C2 pointers : No
Read offset correction : 102Overread into Lead-In and Lead-Out : NoFill up missing offset samples with silence : YesDelete leading and trailing silent blocks : NoNull samples used in CRC calculations : YesUsed interface : Native Win32 interface for Win NT & 2000
Used output format : User Defined EncoderSelected bitrate : 896 kBit/sQuality : HighAdd ID3 tag : NoCommand line compressor : C:\Program Files\Exact Audio Copy\FLAC\FLAC.EXEAdditional command line options : -V -8 %source%
TOC of the extracted CD
Track | Start | Length | Start sector | End sector --------------------------------------------------------- 1 | 0:00.00 | 6:16.54 | 0 | 28253 2 | 6:16.54 | 5:41.64 | 28254 | 53892 3 | 11:58.43 | 9:12.29 | 53893 | 95321 4 | 21:10.72 | 7:34.29 | 95322 | 129400 5 | 28:45.26 | 5:03.53 | 129401 | 152178 6 | 33:49.04 | 2:31.27 | 152179 | 163530 7 | 36:20.31 | 4:16.59 | 163531 | 182789 8 | 40:37.15 | 4:45.30 | 182790 | 204194 9 | 45:22.45 | 7:08.35 | 204195 | 236329 10 | 52:31.05 | 9:05.59 | 236330 | 277263
Range status and errors
Selected range
Filename C:\temp\O Magnum Mysterium (Schola Cantorum Stuttgart, Clytus Gottwald)\O Magnum Mysterium - CD1.wav
Peak level 81.3 % Extraction speed 2.7 X Range quality 99.9 % Test CRC DBD7C236 Copy CRC DBD7C236 Copy OK
No errors occurred
AccurateRip summary
Track 1 accurately ripped (confidence 1) [609325A6] (AR v2)Track 2 accurately ripped (confidence 1) [6A71026A] (AR v2)Track 3 accurately ripped (confidence 1) [76B29A0A] (AR v2)Track 4 accurately ripped (confidence 1) [12A72DFD] (AR v2)Track 5 accurately ripped (confidence 1) [609EAD27] (AR v2)Track 6 accurately ripped (confidence 1) [4F4CAA9F] (AR v2)Track 7 accurately ripped (confidence 1) [83F9A7D7] (AR v2)Track 8 accurately ripped (confidence 1) [BBC4A342] (AR v2)Track 9 accurately ripped (confidence 1) [42DDC28C] (AR v2)Track 10 accurately ripped (confidence 1) [8D85E8E6] (AR v2)
All tracks accurately ripped
End of status report
==== Log checksum 021041AE8DB7688F04CCE0CF66FE84E443630C06CCBBA6DD050377D637EE89F8 ====

Лог создания рипа: CD2

Exact Audio Copy V1.0 beta 3 from 29. August 2011
EAC extraction logfile from 30. October 2013, 17:37
Schola Cantorum Stuttgart, Clytus Gottwald / O Magnum Mysterium - CD2
Used drive : HL-DT-STDVDRRW GWA-4164B Adapter: 5 ID: 0
Read mode : SecureUtilize accurate stream : YesDefeat audio cache : YesMake use of C2 pointers : No
Read offset correction : 102Overread into Lead-In and Lead-Out : NoFill up missing offset samples with silence : YesDelete leading and trailing silent blocks : NoNull samples used in CRC calculations : YesUsed interface : Native Win32 interface for Win NT & 2000
Used output format : User Defined EncoderSelected bitrate : 896 kBit/sQuality : HighAdd ID3 tag : NoCommand line compressor : C:\Program Files\Exact Audio Copy\FLAC\FLAC.EXEAdditional command line options : -V -8 %source%
TOC of the extracted CD
Track | Start | Length | Start sector | End sector --------------------------------------------------------- 1 | 0:00.00 | 5:54.09 | 0 | 26558 2 | 5:54.09 | 8:03.52 | 26559 | 62835 3 | 13:57.61 | 9:21.20 | 62836 | 104930 4 | 23:19.06 | 3:38.70 | 104931 | 121350 5 | 26:58.01 | 3:30.42 | 121351 | 137142 6 | 30:28.43 | 5:42.71 | 137143 | 162863 7 | 36:11.39 | 3:42.41 | 162864 | 179554 8 | 39:54.05 | 5:41.52 | 179555 | 205181 9 | 45:35.57 | 9:06.63 | 205182 | 246194 10 | 54:42.45 | 6:27.43 | 246195 | 275262 11 | 61:10.13 | 4:29.44 | 275263 | 295481 12 | 65:39.57 | 4:40.69 | 295482 | 316550
Range status and errors
Selected range
Filename C:\temp\O Magnum Mysterium (Schola Cantorum Stuttgart, Clytus Gottwald)\O Magnum Mysterium - CD2.wav
Peak level 76.9 % Extraction speed 3.7 X Range quality 100.0 % Test CRC 2CC8E596 Copy CRC 2CC8E596 Copy OK
No errors occurred
AccurateRip summary
Track 1 cannot be verified as accurate (confidence 4) [5F108A76], AccurateRip returned [26C4D4CA] (AR v2)Track 2 cannot be verified as accurate (confidence 4) [B36AD2A3], AccurateRip returned [AAB559F4] (AR v2)Track 3 cannot be verified as accurate (confidence 4) [32F2EEF9], AccurateRip returned [034898B8] (AR v2)Track 4 cannot be verified as accurate (confidence 4) [A2A13B97], AccurateRip returned [8EAEA0BE] (AR v2)Track 5 cannot be verified as accurate (confidence 4) [E2B483EA], AccurateRip returned [C27955C0] (AR v2)Track 6 cannot be verified as accurate (confidence 4) [A1735275], AccurateRip returned [FE6B7C71] (AR v2)Track 7 cannot be verified as accurate (confidence 4) [5536069F], AccurateRip returned [36BE3366] (AR v2)Track 8 cannot be verified as accurate (confidence 4) [AF2CC21F], AccurateRip returned [B040324E] (AR v2)Track 9 cannot be verified as accurate (confidence 4) [1A124C34], AccurateRip returned [1E0968E6] (AR v2)Track 10 cannot be verified as accurate (confidence 4) [4BBA76B4], AccurateRip returned [1B4F5ACD] (AR v2)Track 11 cannot be verified as accurate (confidence 4) [17585904], AccurateRip returned [5F4257F3] (AR v2)Track 12 cannot be verified as accurate (confidence 4) [9E464439], AccurateRip returned [D91A9B48] (AR v2)
No tracks could be verified as accurateYou may have a different pressing from the one(s) in the database
End of status report
==== Log checksum 58374D9B9731BC3EC572F59557EF53368CA86C1CB104ADA35B0722AFEA53C6B3 ====

Лог создания рипа: CD3

Exact Audio Copy V1.0 beta 3 from 29. August 2011
EAC extraction logfile from 31. October 2013, 16:25
Schola Cantorum Stuttgart, Clytus Gottwald / O Magnum Mysterium - CD3
Used drive : HL-DT-STDVDRRW GWA-4164B Adapter: 5 ID: 0
Read mode : SecureUtilize accurate stream : YesDefeat audio cache : YesMake use of C2 pointers : No
Read offset correction : 102Overread into Lead-In and Lead-Out : NoFill up missing offset samples with silence : YesDelete leading and trailing silent blocks : NoNull samples used in CRC calculations : YesUsed interface : Native Win32 interface for Win NT & 2000
Used output format : User Defined EncoderSelected bitrate : 896 kBit/sQuality : HighAdd ID3 tag : NoCommand line compressor : C:\Program Files\Exact Audio Copy\FLAC\FLAC.EXEAdditional command line options : -V -8 %source%
TOC of the extracted CD
Track | Start | Length | Start sector | End sector --------------------------------------------------------- 1 | 0:00.00 | 7:26.40 | 0 | 33489 2 | 7:26.40 | 1:54.10 | 33490 | 42049 3 | 9:20.50 | 4:25.65 | 42050 | 61989 4 | 13:46.40 | 8:35.19 | 61990 | 100633 5 | 22:21.59 | 3:44.39 | 100634 | 117472 6 | 26:06.23 | 3:17.16 | 117473 | 132263 7 | 29:23.39 | 3:45.62 | 132264 | 149200 8 | 33:09.26 | 4:05.41 | 149201 | 167616 9 | 37:14.67 | 6:28.42 | 167617 | 196758 10 | 43:43.34 | 8:42.34 | 196759 | 235942 11 | 52:25.68 | 11:48.69 | 235943 | 289111 12 | 64:14.62 | 9:39.63 | 289112 | 332599
Range status and errors
Selected range
Filename C:\temp\O Magnum Mysterium (Schola Cantorum Stuttgart, Clytus Gottwald)\O Magnum Mysterium - CD3.wav
Peak level 79.3 % Extraction speed 3.9 X Range quality 100.0 % Test CRC 1A4FE321 Copy CRC 1A4FE321 Copy OK
No errors occurred
AccurateRip summary
Track 1 accurately ripped (confidence 1) [00591D53] (AR v2)Track 2 accurately ripped (confidence 1) [A1AB1650] (AR v2)Track 3 accurately ripped (confidence 1) [EF8B821D] (AR v2)Track 4 accurately ripped (confidence 1) [3679DAF1] (AR v2)Track 5 accurately ripped (confidence 1) [FC435B66] (AR v2)Track 6 accurately ripped (confidence 1) [49FAF946] (AR v2)Track 7 accurately ripped (confidence 1) [AE8E5D9A] (AR v2)Track 8 accurately ripped (confidence 1) [B9E57E88] (AR v2)Track 9 accurately ripped (confidence 1) [7567D283] (AR v2)Track 10 accurately ripped (confidence 1) [C6B16915] (AR v2)Track 11 accurately ripped (confidence 1) [7BC8A65B] (AR v2)Track 12 accurately ripped (confidence 1) [04AF57DC] (AR v2)
All tracks accurately ripped
End of status report
==== Log checksum 444F60991E33F44F1769CD3895DAEE6CA6E94FBF2427E149493CF127F46B975F ====

Лог создания рипа: CD4

Exact Audio Copy V1.0 beta 3 from 29. August 2011
EAC extraction logfile from 31. October 2013, 17:22
Schola Cantorum Stuttgart, Clytus Gottwald / O Magnum Mysterium - CD4
Used drive : HL-DT-STDVDRRW GWA-4164B Adapter: 5 ID: 0
Read mode : SecureUtilize accurate stream : YesDefeat audio cache : YesMake use of C2 pointers : No
Read offset correction : 102Overread into Lead-In and Lead-Out : NoFill up missing offset samples with silence : YesDelete leading and trailing silent blocks : NoNull samples used in CRC calculations : YesUsed interface : Native Win32 interface for Win NT & 2000
Used output format : User Defined EncoderSelected bitrate : 896 kBit/sQuality : HighAdd ID3 tag : NoCommand line compressor : C:\Program Files\Exact Audio Copy\FLAC\FLAC.EXEAdditional command line options : -V -8 %source%
TOC of the extracted CD
Track | Start | Length | Start sector | End sector --------------------------------------------------------- 1 | 0:00.00 | 5:17.72 | 0 | 23846 2 | 5:17.72 | 8:03.05 | 23847 | 60076 3 | 13:21.02 | 11:29.38 | 60077 | 111789 4 | 24:50.40 | 11:34.07 | 111790 | 163846 5 | 36:24.47 | 5:49.53 | 163847 | 190074 6 | 42:14.25 | 9:54.15 | 190075 | 234639 7 | 52:08.40 | 7:08.00 | 234640 | 266739 8 | 59:16.40 | 7:33.37 | 266740 | 300751 9 | 66:50.02 | 1:11.63 | 300752 | 306139 10 | 68:01.65 | 3:49.70 | 306140 | 323384 11 | 71:51.60 | 5:12.70 | 323385 | 346854
Range status and errors
Selected range
Filename C:\temp\O Magnum Mysterium (Schola Cantorum Stuttgart, Clytus Gottwald)\O Magnum Mysterium - CD4.wav
Peak level 77.5 % Extraction speed 3.5 X Range quality 99.9 % Test CRC 607EFF35 Copy CRC 607EFF35 Copy OK
No errors occurred
AccurateRip summary
Track 1 cannot be verified as accurate (confidence 4) [7611CC30], AccurateRip returned [0E1FBD02] (AR v2)Track 2 cannot be verified as accurate (confidence 4) [4AD20A00], AccurateRip returned [0621A0EE] (AR v2)Track 3 cannot be verified as accurate (confidence 4) [BCA01F33], AccurateRip returned [14B1A257] (AR v2)Track 4 cannot be verified as accurate (confidence 4) [92771FA3], AccurateRip returned [3AA92AA2] (AR v2)Track 5 cannot be verified as accurate (confidence 4) [AC5CBCFB], AccurateRip returned [1613ADC4] (AR v2)Track 6 cannot be verified as accurate (confidence 4) [BDF524DB], AccurateRip returned [C4EB0D75] (AR v2)Track 7 cannot be verified as accurate (confidence 4) [EE66968E], AccurateRip returned [C52D93FB] (AR v2)Track 8 cannot be verified as accurate (confidence 4) [751B5F9F], AccurateRip returned [0B845908] (AR v2)Track 9 cannot be verified as accurate (confidence 4) [54016FE9], AccurateRip returned [EC1B3933] (AR v2)Track 10 cannot be verified as accurate (confidence 4) [D7FD8626], AccurateRip returned [84CC4404] (AR v2)Track 11 cannot be verified as accurate (confidence 4) [E5957799], AccurateRip returned [297A7D29] (AR v2)
No tracks could be verified as accurateYou may have a different pressing from the one(s) in the database
End of status report
==== Log checksum 1A682B07EC499131A98057CAF072BEC79BF262711383FF712099A54454C2F6F3 ====
[teatrix.ru].t7996.torrent 
Торрент: Зарегистрирован [ 2015-10-14 02:49 ] · 376FD28861C1276B9C4158AA4E9D10A13AEED157

Скачать .torrent

Скачать

24 KB

Статус: проверено
Скачан: 0 раз
Размер: 1.05 GB
terms.php



Быстрый ответ

Имя:

      
Для отправки сообщений необходимо включить JavaScript
Показать сообщения:    

Текущее время: 11-Дек 13:01

Часовой пояс: UTC + 3


Вы можете начинать темы
Вы можете отвечать на сообщения
Вы не можете редактировать свои сообщения
Вы не можете удалять свои сообщения
Вы не можете голосовать в опросах
Вы не можете прикреплять файлы к сообщениям
Вы можете скачивать файлы