(Baroque/Sacred) Johann Sebastian Bach - In Tempore Nativitatis: Christmas Cantatas BWV 110, 151, 63 (Ricercar Consort, Philippe Pierlot, Maria Keohane, Carlos Mena, Julian Pregardien, Stephan MacLeod) - 2013, FLAC (image+.cue) lossless


Статистика раздачи [Обновить пиров]
Размер:  356 MB   |    Зарегистрирован:  1 год 1 месяц   |    Скачан:  0 раз

Полного источника не было: Никогда

 
   
 
 
 

[Цитировать]

Johann Sebastian Bach - In tempore Nativitatis: Christmas Cantatas BWV 110, 151, 63 (Ricercar Consort, Philippe Pierlot, Maria Keohane, Carlos Mena, Julian Pregardien, Stephan MacLeod)
Жанр: Baroque/Sacred
Страна-производитель диска: Austria
Год издания диска: 2013
Издатель (лейбл): Mirare
Номер по каталогу: MIR 243
Дата записи: 2012
Аудиокодек: FLAC
Тип рипа: image+.cue
Битрейт аудио: lossless
Продолжительность: 67:54
Источник: собственный рип
Наличие сканов в содержимом раздачи: да
Исполнители:
Ricercar Consort
Philippe Pierlot
Maria Keohane (soprano)
Carlos Mena (alto)
Julian Pregardien (tenor)
Stephan MacLeod (basse)
Enregistrement realise en novembre 2012 en l’eglise de Beaufays (Belgique)

Доп. информация: Ricercar Consort

Sophie Gent, Annelies Decock, Sandrine Dupe, Maia Silberstein, Tuomo Suni, Gabriel Grosbard, Blanka Eberhardt (violons)
Michiyo Kondo, Mika Akiha (altos)
Rainer Zipperling (violoncelle)
Richard Myron (contrebasse
Marc Hantai, Yifen Chen (flutes)
Jean-Marc Philippe, Vincent Blanchard, Rodrigo Gutierrez (hautbois)
Lisa Goldberg (basson)
Guy Ferber, Krisztian Kovats, Emmanuel Alemany, Pierre-Louis Marques (trompettes)
Thomas Holzinger (timbale)
Francois Guerrier (clavecin)
Francis Jacob (orgue)
Philippe Pierlot (direction)

Треклист:

Unser Mund sei voll Lachens BWV 110
01. Coro Unser Mund sei voll Lachens 6:15
02. Aria 1 a 2 Travers Ihr Gedanken und ihr Sinnen 4:49
03. Recit Dir, Herr, ist niemand gleich 0:30
04. Aria 2 Hautb solo Ach Herr, was ist ein Menschenkind 4:11
05. Duetto a Soprano e Tenore Ehre sei Gott in der Hohe 3:19
06. Aria Wacht auf, ihr Adern und ihr Glieder 3:57
07. Choral Alleluia! Gelobt sei Gott 0:43
Susser Trost, mein Jesus kommt BWV 151
08. Aria Susser Trost, mein Jesus kommt 9:03
09. Recit Basso Erfreue dich, mein Herz 1:08
10. Aria In Jesu Demut kann ich Trost 5:27
11. Recit Du teurer Gottessohn 0:50
12. Choral Heut schleusst er wieder auf die Tur 0:40
Christen, atzet diesen Tag BWV 63
13. Chorus Christen, atzet diesen Tag 5:11
14. Recit O selger Tag! o ungemeines Heute 2:45
15. Aria duetto Gott, du hast es wohl gefuget 7:24
16. Recit So kehret sich nun heut das bange Leid 0:50
17. Aria duetto Ruft und fleht den Himmel an 3:33
18. Recit Verdoppelt euch demnach, ihr heissen Andachtsflammen 1:00
19. Chorus Hochster, schau in Gnaden an 6:04

Лог создания рипа

Exact Audio Copy V1.0 beta 3 from 29. August 2011
EAC extraction logfile from 9. January 2014, 21:26
Ricercar Consort, Philippe Pierlot / Bach JS - In Tempore Nativitatis
Used drive : Optiarc DVD RW AD-7203S Adapter: 1 ID: 0
Read mode : SecureUtilize accurate stream : YesDefeat audio cache : YesMake use of C2 pointers : No
Read offset correction : 48Overread into Lead-In and Lead-Out : NoFill up missing offset samples with silence : YesDelete leading and trailing silent blocks : NoNull samples used in CRC calculations : YesUsed interface : Installed external ASPI interface
Used output format : User Defined EncoderSelected bitrate : 896 kBit/sQuality : HighAdd ID3 tag : NoCommand line compressor : M:\prog\eac-1.0beta3\Flac\flac.exeAdditional command line options : -V -8 %source%
TOC of the extracted CD
Track | Start | Length | Start sector | End sector --------------------------------------------------------- 1 | 0:00.00 | 6:14.74 | 0 | 28123 2 | 6:14.74 | 4:49.11 | 28124 | 49809 3 | 11:04.10 | 0:30.34 | 49810 | 52093 4 | 11:34.44 | 4:10.70 | 52094 | 70913 5 | 15:45.39 | 3:19.33 | 70914 | 85871 6 | 19:04.72 | 3:56.43 | 85872 | 103614 7 | 23:01.40 | 0:47.01 | 103615 | 107140 8 | 23:48.41 | 9:02.68 | 107141 | 147858 9 | 32:51.34 | 1:08.27 | 147859 | 152985 10 | 33:59.61 | 5:27.57 | 152986 | 177567 11 | 39:27.43 | 0:50.10 | 177568 | 181327 12 | 40:17.53 | 0:42.30 | 181328 | 184507 13 | 41:00.08 | 5:11.29 | 184508 | 207861 14 | 46:11.37 | 2:44.63 | 207862 | 220224 15 | 48:56.25 | 7:25.13 | 220225 | 253612 16 | 56:21.38 | 0:51.61 | 253613 | 257498 17 | 57:13.24 | 3:32.56 | 257499 | 273454 18 | 60:46.05 | 1:02.10 | 273455 | 278114 19 | 61:48.15 | 6:05.30 | 278115 | 305519
Range status and errors
Selected range
Filename N:\@Results\Bach JS - In Tempore Nativitatis - Ricercar Consort, Philippe Pierlot.wav
Peak level 99.7 % Extraction speed 4.5 X Range quality 100.0 % Test CRC 3B167415 Copy CRC 3B167415 Copy OK
No errors occurred
End of status report
==== Log checksum F9CBD2C3928876F2301F3958A31C10DFF9531E2744EC8CEFDD930E817ECBBA85 ====
[teatrix.ru].t7997.torrent 
Торрент: Зарегистрирован [ 2015-10-14 02:49 ] · D3AF42458521F06B703CEF2B4E61C557546DC3A6

Скачать .torrent

Скачать

15 KB

Статус: проверено
Скачан: 0 раз
Размер: 356 MB
terms.php



Быстрый ответ

Имя:

      
Для отправки сообщений необходимо включить JavaScript
Показать сообщения:    

Текущее время: 07-Дек 23:19

Часовой пояс: UTC + 3


Вы можете начинать темы
Вы можете отвечать на сообщения
Вы не можете редактировать свои сообщения
Вы не можете удалять свои сообщения
Вы не можете голосовать в опросах
Вы не можете прикреплять файлы к сообщениям
Вы можете скачивать файлы