(Classical) Johann Joseph Fux – Requiem “Missa Pro Defunctis” (Rene Clemencic) - 2001, FLAC (image+.cue) lossless


Статистика раздачи [Обновить пиров]
Размер:  258 MB   |    Зарегистрирован:  1 год 1 месяц   |    Скачан:  0 раз

Полного источника не было: Никогда

 
   
 
 
 

[Цитировать]

Johann Joseph Fux – Requiem “Missa Pro Defunctis” (Rene Clemencic)
Жанр: Classical
Год издания диска: 2001
Издатель (лейбл): Arte Nova
Номер по каталогу: 74321 27777 2
Аудиокодек: FLAC
Тип рипа: image+.cue
Битрейт аудио: lossless
Продолжительность: 59:08
Источник: собственный рип
Наличие сканов в содержимом раздачи: да
Треклист:
01. Sonata a tre ex d per due Violini K 342 (violoncello & basso continuo)
02. Ciaccona per organo K 403/2
03. Grave from Sonata a tre ex d K 342 (2 trombones, organ, violin)
04. Media vita in morte sumus (choral)
05. De profundis K 130 (motet)
06. Adagio per organo K 400 from Sonata terza
07. REQUIEM AETERNAM K 51-53 - KYRIE ELEISON
08. DIES IRAE
09. Libera me, Domine K 54 (motet)
10. Largo from Canon a due E 66 (2 trombones, organ, violin)
11. DOMINE JESU CHRISTE
12. SANCTUS
13. Adagio K 400 from Sonata terza (2 trombones, organ, violin)
14. AGNUS DEI - LUX AETERNA - REQUIEM AETERNAM
Исполнители:
Clemencic Consort
Rene Clemencic

LOG EAC

Exact Audio Copy V1.0 beta 1 from 15. November 2010
EAC extraction logfile from 2. February 2012, 22:08
Rene Clemencic - Clemencic Consort / Fux J.J. - Requiem and others
Used drive : PIONEER DVD-RW DVR-218L Adapter: 1 ID: 0
Read mode : SecureUtilize accurate stream : YesDefeat audio cache : YesMake use of C2 pointers : No
Read offset correction : 6Overread into Lead-In and Lead-Out : NoFill up missing offset samples with silence : YesDelete leading and trailing silent blocks : NoNull samples used in CRC calculations : YesUsed interface : Native Win32 interface for Win NT & 2000
Used output format : User Defined EncoderSelected bitrate : 192 kBit/sQuality : HighAdd ID3 tag : NoCommand line compressor : C:\Program Files\Exact Audio Copy\Flac\flac.exeAdditional command line options : -T "DATE=%y" -T "GENRE=%m" -8 -V %s
TOC of the extracted CD
Track | Start | Length | Start sector | End sector---------------------------------------------------------1 | 0:00.32 | 4:41.63 | 32 | 211692 | 4:42.20 | 4:53.60 | 21170 | 432043 | 9:36.05 | 1:03.52 | 43205 | 479814 | 10:39.57 | 1:20.43 | 47982 | 540245 | 12:00.25 | 4:08.55 | 54025 | 726796 | 16:09.05 | 2:01.45 | 72680 | 817997 | 18:10.50 | 8:43.10 | 81800 | 1210348 | 26:53.60 | 13:25.40 | 121035 | 1814499 | 40:19.25 | 3:45.60 | 181450 | 19838410 | 44:05.10 | 1:01.10 | 198385 | 20296911 | 45:06.20 | 4:43.65 | 202970 | 22425912 | 49:50.10 | 2:52.10 | 224260 | 23716913 | 52:42.20 | 1:09.10 | 237170 | 24235414 | 53:51.30 | 5:16.65 | 242355 | 266119
Range status and errors
Selected range
Filename C:\Fux J.J. - Requiem and others.wav
Peak level 91.6 %Extraction speed 0.1 XRange quality 100.0 %Test CRC 0970D185Copy CRC 0970D185Copy OK
No errors occurred
AccurateRip summary
Track 1 accurately ripped (confidence 15) [FD40A0EB]Track 2 accurately ripped (confidence 14) [BF36D51E]Track 3 accurately ripped (confidence 15) [65E46CAE]Track 4 accurately ripped (confidence 15) [B56EA63E]Track 5 accurately ripped (confidence 15) [5EF06FE4]Track 6 accurately ripped (confidence 15) [C773C199]Track 7 accurately ripped (confidence 14) [CA96D85E]Track 8 accurately ripped (confidence 14) [7745B985]Track 9 accurately ripped (confidence 15) [3A3DFBE8]Track 10 accurately ripped (confidence 15) [3D383921]Track 11 accurately ripped (confidence 15) [EDDD492D]Track 12 accurately ripped (confidence 15) [B0699B10]Track 13 accurately ripped (confidence 12) [650A4BC7]Track 14 accurately ripped (confidence 14) [C0BD7F17]
All tracks accurately ripped
End of status report
==== Log checksum F76161A1101ACE4327BAFA88023289406496FAB1E03A8F99A5CC8EA4FE4E620F ====

Содержание индексной карты (.CUE)

REM GENRE ClassicalREM DATE 1998REM DISCID C00DDC0EREM COMMENT "ExactAudioCopy v1.0b1"PERFORMER "Rene Clemencic - Clemencic Consort"TITLE "Fux J.J. - Requiem and others"FILE "Fux J.J. - Requiem and others.flac" WAVE TRACK 01 AUDIO TITLE "Sonata a tre ex d per due Violini K 342 (violoncello & basso continuo)" PERFORMER "Rene Clemencic - Clemencic Consort" INDEX 00 00:00:00 INDEX 01 00:00:32 TRACK 02 AUDIO TITLE "Ciaccona per organo K 403/2" PERFORMER "Rene Clemencic - Clemencic Consort" INDEX 00 04:40:30 INDEX 01 04:42:20 TRACK 03 AUDIO TITLE "Grave from Sonata a tre ex d K 342 (2 trombones, organ, violin)" PERFORMER "Rene Clemencic - Clemencic Consort" INDEX 00 09:34:27 INDEX 01 09:36:05 TRACK 04 AUDIO TITLE "Media vita in morte sumus (choral)" PERFORMER "Rene Clemencic - Clemencic Consort" INDEX 00 10:38:55 INDEX 01 10:39:57 TRACK 05 AUDIO TITLE "De profundis K 130 (motet)" PERFORMER "Rene Clemencic - Clemencic Consort" INDEX 00 11:58:63 INDEX 01 12:00:25 TRACK 06 AUDIO TITLE "Adagio per organo K 400 from Sonata terza" PERFORMER "Rene Clemencic - Clemencic Consort" INDEX 00 16:06:42 INDEX 01 16:09:05 TRACK 07 AUDIO TITLE "REQUIEM AETERNAM K 51-53 - KYRIE ELEISON" PERFORMER "Rene Clemencic - Clemencic Consort" INDEX 00 18:07:72 INDEX 01 18:10:50 TRACK 08 AUDIO TITLE "II. DIES IRAE" PERFORMER "Rene Clemencic - Clemencic Consort" INDEX 00 26:51:68 INDEX 01 26:53:60 TRACK 09 AUDIO TITLE "Libera me, Domine K 54 (motet)" PERFORMER "Rene Clemencic - Clemencic Consort" INDEX 00 40:16:45 INDEX 01 40:19:25 TRACK 10 AUDIO TITLE "Largo from Canon a due E 66 (2 trombones, organ, violin)" PERFORMER "Rene Clemencic - Clemencic Consort" INDEX 00 44:03:39 INDEX 01 44:05:10 TRACK 11 AUDIO TITLE "DOMINE JESU CHRISTE" PERFORMER "Rene Clemencic - Clemencic Consort" INDEX 01 45:06:20 TRACK 12 AUDIO TITLE "SANCTUS" PERFORMER "Rene Clemencic - Clemencic Consort" INDEX 00 49:46:73 INDEX 01 49:50:10 TRACK 13 AUDIO TITLE "Adagio K 400 from Sonata terza (2 trombones, organ, violin)" PERFORMER "Rene Clemencic - Clemencic Consort" INDEX 00 52:40:00 INDEX 01 52:42:20 TRACK 14 AUDIO TITLE "AGNUS DEI - LUX AETERNA - REQUIEM AETERNAM" PERFORMER "Rene Clemencic - Clemencic Consort" INDEX 00 53:50:08 INDEX 01 53:51:30
mp3
[teatrix.ru].t7998.torrent 
Торрент: Зарегистрирован [ 2015-10-14 02:49 ] · 8C35E8693D0BA5E67FC5AF0813514637399FEB4D

Скачать .torrent

Скачать

11 KB

Статус: проверено
Скачан: 0 раз
Размер: 258 MB
terms.php



Быстрый ответ

Имя:

      
Для отправки сообщений необходимо включить JavaScript
Показать сообщения:    

Текущее время: 10-Дек 15:50

Часовой пояс: UTC + 3


Вы можете начинать темы
Вы можете отвечать на сообщения
Вы не можете редактировать свои сообщения
Вы не можете удалять свои сообщения
Вы не можете голосовать в опросах
Вы не можете прикреплять файлы к сообщениям
Вы можете скачивать файлы