(Classical, sacred) Carlo Gesualdo - Sacrae Cantiones, Liber secundus - Vocalconsort Berlin, James Wood - 2013, FLAC (image+.cue) lossless


Статистика раздачи [Обновить пиров]
Размер:  309 MB   |    Зарегистрирован:  1 год 1 месяц   |    Скачан:  1 раз

Полного источника не было: 1 месяц 20 дней

 
   
 
 
 

[Цитировать]

Carlo Gesualdo - Sacrae Cantiones, Liber secundus - Vocalconsort Berlin, James Wood
Жанр: Classical, sacred
Страна-производитель диска: France
Год издания диска: 2013
Издатель (лейбл): Harmonia Mundi
Номер по каталогу: HMC 902123
Дата записи: 2011
Аудиокодек: FLAC
Тип рипа: image+.cue
Битрейт аудио: lossless
Продолжительность: 69:22
Источник: собственный рип
Наличие сканов в содержимом раздачи: да
Треклист:
Carlo Gesualdo (1560?-1613)
Sacrae Cantiones Liber secundus (a6 e a7) (1603)
Reconstructed by James Wood
Opening Canticle
[1] Miserere
Prayers for Salvation
[2] I. Virgo benedicta
[3] V. O oriens
[4] XVI. O beata Mater
[5] XIII. Verba mea
[6] VIII. Veni Creator Spiritus
[7] IV. Ave sanctissima Maria
[8] III. Sana me Domine
Despair and Weeping
[9] VI. Discedite a me omnes
[10] XIX. O anima sanctissima
[11] XIV. Ardens est cor meum
Peace and Hope
[12] II. Da pacem Domine
[13] XV. Ne derelinquas me
[14] XVIII. Franciscus humilis et pauper
[15] VII. Gaudeamus omnes
Praise and Thanks
[16] X. Adoramus te Christe
[17] IX. O sacrum convivium
[18] XVII. Ad te levavi
[19] XII. Assumpta est Maria
[20] XI. Veni sponsa Christi
[21] XX. Illumina nos
Closing Canticle
[22] Benedictus
Исполнители:
Vocalconsort Berlin
dir. James Wood

Лог создания рипа

Exact Audio Copy V1.0 beta 3 from 29. August 2011
EAC extraction logfile from 24. November 2013, 0:57
Vocalconsort Berlin, James Wood / Gesualdo - Sacrae Cantiones, Liber secundus
Used drive : HL-DT-STDVDRAM GSA-4083N Adapter: 1 ID: 0
Read mode : SecureUtilize accurate stream : YesDefeat audio cache : YesMake use of C2 pointers : No
Read offset correction : 667Overread into Lead-In and Lead-Out : NoFill up missing offset samples with silence : YesDelete leading and trailing silent blocks : NoNull samples used in CRC calculations : YesUsed interface : Native Win32 interface for Win NT & 2000
Used output format : User Defined EncoderSelected bitrate : 896 kBit/sQuality : HighAdd ID3 tag : NoCommand line compressor : C:\Program Files\Exact Audio Copy\Flac\flac.exeAdditional command line options : -V -8 %source%
TOC of the extracted CD
Track | Start | Length | Start sector | End sector --------------------------------------------------------- 1 | 0:00.00 | 7:56.59 | 0 | 35758 2 | 7:56.59 | 2:47.56 | 35759 | 48339 3 | 10:44.40 | 2:36.24 | 48340 | 60063 4 | 13:20.64 | 2:58.56 | 60064 | 73469 5 | 16:19.45 | 2:26.60 | 73470 | 84479 6 | 18:46.30 | 2:12.74 | 84480 | 94453 7 | 20:59.29 | 3:33.72 | 94454 | 110500 8 | 24:33.26 | 2:39.28 | 110501 | 122453 9 | 27:12.54 | 2:27.07 | 122454 | 133485 10 | 29:39.61 | 3:04.17 | 133486 | 147302 11 | 32:44.03 | 3:02.41 | 147303 | 160993 12 | 35:46.44 | 3:19.50 | 160994 | 175968 13 | 39:06.19 | 2:29.67 | 175969 | 187210 14 | 41:36.11 | 2:46.64 | 187211 | 199724 15 | 44:23.00 | 2:12.16 | 199725 | 209640 16 | 46:35.16 | 2:04.01 | 209641 | 218941 17 | 48:39.17 | 3:53.19 | 218942 | 236435 18 | 52:32.36 | 2:44.43 | 236436 | 248778 19 | 55:17.04 | 3:13.09 | 248779 | 263262 20 | 58:30.13 | 2:33.54 | 263263 | 274791 21 | 61:03.67 | 3:17.52 | 274792 | 289618 22 | 64:21.44 | 4:59.28 | 289619 | 312071
Range status and errors
Selected range
Filename J:\New Music\HMC902123 - Gesualdo - Sacrae Cantiones, Liber secundus (Vocalconsort Berlin, James Wood - HARMONIA MUNDI)\Gesualdo - Sacrae Cantiones, Liber secundus.wav
Peak level 97.7 % Extraction speed 2.7 X Range quality 99.9 % Test CRC 91B656B3 Copy CRC 91B656B3 Copy OK
No errors occurred
End of status report
==== Log checksum 0F244AD9326DE31ECFBDFBCEB8E5955676A806CC293265E424D4752B8A7F2B86 ====
[teatrix.ru].t7999.torrent 
Торрент: Зарегистрирован [ 2015-10-14 02:49 ] · 55155857B8C491B00A4EB7B941524B81AECF6877

Скачать .torrent

Скачать

27 KB

Статус: проверено
Скачан: 1 раз
Размер: 309 MB
terms.php



Быстрый ответ

Имя:

      
Для отправки сообщений необходимо включить JavaScript
Показать сообщения:    

Текущее время: 04-Дек 00:49

Часовой пояс: UTC + 3


Вы можете начинать темы
Вы можете отвечать на сообщения
Вы не можете редактировать свои сообщения
Вы не можете удалять свои сообщения
Вы не можете голосовать в опросах
Вы не можете прикреплять файлы к сообщениям
Вы можете скачивать файлы