(Oratorio) George Frideric Handel - Messiah (Academy of Ancient Music, Christopher Hogwood, Emma Kirkby, Judith Nelson, Carolyn Watkinson, Paul Elliott, David Thomas) - 1984, FLAC (image+.cue) lossless


Статистика раздачи [Обновить пиров]
Размер:  636 MB   |    Зарегистрирован:  1 год 1 месяц   |    Скачан:  1 раз

Полного источника не было: 4 месяца 19 дней

 
   
 
 
 

[Цитировать]

George Frideric Handel - Messiah
Academy of Ancient Music, Christopher Hogwood
Жанр: Oratorio
Страна-производитель диска: Germany
Год издания диска: 1984
Издатель (лейбл): Decca / L'Oiseau-Lyre
Номер по каталогу: 411 858-2
Дата записи: 1980
Аудиокодек: FLAC
Тип рипа: image+.cue
Битрейт аудио: lossless
Продолжительность: 136:36
Источник: собственный рип
Наличие сканов в содержимом раздачи: да (только обложки)
Исполнители:
Academy of Ancient Music
Christopher Hogwood - conductor
Emma Kirkby - soprano
Judith Nelson - soprano
Carolyn Watkinson - contralto
Paul Elliott - tenor
David Thomas - bass
Choir of Christ Church Cathedral, Oxford

Треклист

CD1
1. Part I: Sinfony
2. Recitative: Comfort Ye My People - Song: Every Valley Shall Be Exalted
3. Chorus: And The Glory Of The Lord
4. Recitative: Thus Saith The Lord - Song: But Who May Abide The Day Of His Coming?
5. Chorus: And He Shall Purify
6. Recitative: Behold, A Virgin Shall Conceive - Song: O Thou That Tellest Good Tidings To Zion
7. Recitative: For Behold, Darkness Shall Cover The Earth - Song:The People That Walked In The Darkness
8. Chorus: For Unto Us A Child Is Born
9. Pifa
10. Recitative: There Were Shepherds, Abinding In The Field - Recitative: And, Lo The Angel Of The Lord Came Upon Them - Recitative: And The Angel Said Unto Them - Recitative: And Suddenly There Was With The Angel
11. Song: Rejoice Greatly, O Daughter Of Zion
12. Recitative: Then Shall The Eyes Of The Blind - Song: He Shall Feed His Flock
13. Chorus: His Yoke Is Easy, And His Burden Is Light
CD2
1. Part II: Chorus: Behold The Lamb Of God
2. Song: He Was Despised
3. Chorus: Surely He Hath Borne Our Griefs - Chorus: And With His Stripes We Are Healed
4. Chorus: All We Like Sheep Have Gone Astray
5. Recitative: All They That See Him Laugh Him To Scorn - Chorus: He Trusted In God
6. Recitative: Thy Rebuke Hath Broken His Heart - Song: Behold And See If There Be Any Sorrow - Recitative: He Was Cut Off Out Of The Land Of The Living
7. Song: But Thou Didst Not Leave His Soul In Hell
8. Chorus: Lift Up Your Heads, O Ye Gates
9. Recitative: Unto Which Of The Angels Said He At Any Time - Chorus: Let All The Angels Of God Worship Him
10. Song: Thou Art Gone Up On High
11. Chorus: The Lord Gave The Word
12. Song: How Beautiful Are The Feet
13. Chorus: Their Sound Is Gone Out
14. Song: Why Do The Nations So Furiously Rage Together? - Chorus: Let Us Break Their Bonds Asunder
15. Recitative: He That Dwelleth In Heaven - Song: Thou Shalt Break Them
16. Chorus: Hallelujah
CD3
1. Part III: Song: I Know That My Redeemer Liveth
2. Chorus: Since By Man Came Death
3. Recitative: Behold, I Tell You A Mystery - Song: The Trumpet Shall Sound
4. Recitative: Then Shall Be Brought To Pass - Duet: O Death, Where Is Thy Sting?
5. Chorus: But Thanks To Be God
6. Song: If God Be For Us
7. Chorus: Worthy Is The Lamb That Was Slain
8. Chorus: Amen Listen Listen Listen

Лог создания рипа

Лог создания рипа CD1

Exact Audio Copy V1.0 beta 2 from 29. April 2011
EAC extraction logfile from 29. September 2013, 10:38
Christopher Hogwood ,The Academy of Ancient Music / Messiah
Used drive : _NEC DVD_RW ND-3551A Adapter: 0 ID: 0
Read mode : Secure
Utilize accurate stream : Yes
Defeat audio cache : Yes
Make use of C2 pointers : No
Read offset correction : 48
Overread into Lead-In and Lead-Out : No
Fill up missing offset samples with silence : Yes
Delete leading and trailing silent blocks : No
Null samples used in CRC calculations : Yes
Used interface : Native Win32 interface for Win NT & 2000
Used output format : User Defined Encoder
Selected bitrate : 128 kBit/s
Quality : High
Add ID3 tag : No
Command line compressor : D:\Program Files\Exact Audio Copy\Flac\flac.exe
Additional command line options : -V -8 -T "Date=%year%" -T "Genre=%genre%" %source%
TOC of the extracted CD
Track | Start | Length | Start sector | End sector
---------------------------------------------------------
1 | 0:00.33 | 2:51.70 | 33 | 12927
2 | 2:52.28 | 6:35.50 | 12928 | 42602
3 | 9:28.03 | 2:50.60 | 42603 | 55412
4 | 12:18.63 | 5:31.05 | 55413 | 80242
5 | 17:49.68 | 2:42.70 | 80243 | 92462
6 | 20:32.63 | 6:14.47 | 92463 | 120559
7 | 26:47.35 | 5:35.65 | 120560 | 145749
8 | 32:23.25 | 4:14.60 | 145750 | 164859
9 | 36:38.10 | 0:52.28 | 164860 | 168787
10 | 37:30.38 | 3:21.62 | 168788 | 183924
11 | 40:52.25 | 4:09.10 | 183925 | 202609
12 | 45:01.35 | 5:03.40 | 202610 | 225374
13 | 50:05.00 | 2:34.33 | 225375 | 236957
Range status and errors
Selected range
Filename C:\RIP\Handel - Messiah (Hogwood) CD1.wav
Peak level 93.4 %
Extraction speed 1.9 X
Range quality 99.9 %
Test CRC 53F34F06
Copy CRC 53F34F06
Copy OK
No errors occurred
AccurateRip summary
Track 1 accurately ripped (confidence 2) [7F33C3D1] (AR v1)
Track 2 accurately ripped (confidence 2) [5131A7E1] (AR v2)
Track 3 accurately ripped (confidence 3) [6E9C1CCE] (AR v1)
Track 4 accurately ripped (confidence 3) [7E5C6D20] (AR v1)
Track 5 accurately ripped (confidence 3) [E61E2A54] (AR v1)
Track 6 cannot be verified as accurate (confidence 17) [84B2AECA], AccurateRip returned [62946C81] (AR v2)
Track 7 accurately ripped (confidence 3) [EF854D12] (AR v1)
Track 8 accurately ripped (confidence 2) [5703F39C] (AR v2)
Track 9 accurately ripped (confidence 3) [9AC71636] (AR v1)
Track 10 accurately ripped (confidence 3) [A5CBDBE0] (AR v1)
Track 11 accurately ripped (confidence 3) [131F8339] (AR v1)
Track 12 accurately ripped (confidence 2) [F5C4B5DB] (AR v1)
Track 13 accurately ripped (confidence 3) [5F9E35DA] (AR v1)
12 трек(и) скопированы точно
1 трек(и) не удалось проверить на точность
Some tracks could not be verified as accurate
End of status report
==== Log checksum 585D404497CE496D9853A28BD273553C3DA8918574D84EF707DF8C46E15CCA63 ====

Лог создания рипа CD2

Exact Audio Copy V1.0 beta 3 from 29. August 2011
EAC extraction logfile from 18. August 2013, 17:42
The Academy of Ancient Music / Messiah CD2
Used drive : TSSTcorp CDDVDW Adapter: 0 ID: 0
Read mode : Secure
Utilize accurate stream : Yes
Defeat audio cache : Yes
Make use of C2 pointers : No
Read offset correction : 6
Overread into Lead-In and Lead-Out : No
Fill up missing offset samples with silence : Yes
Delete leading and trailing silent blocks : No
Null samples used in CRC calculations : Yes
Used interface : Installed external ASPI interface
Used output format : User Defined Encoder
Selected bitrate : 768 kBit/s
Quality : High
Add ID3 tag : No
Command line compressor : C:\Program Files (x86)\Exact Audio Copy\FLAC\FLAC.EXE
Additional command line options : -6 -V -T "ARTIST=%artist%" -T "TITLE=%title%" -T "ALBUM=%albumtitle%" -T "DATE=%year%" -T "TRACKNUMBER=%tracknr%" -T "GENRE=%genre%" -T "COMMENT=%comment%" -T "BAND=%albuminterpret%" -T "ALBUMARTIST=%albuminterpret%" -T "COMPOSER=%composer%" %haslyrics%--tag-from-file=LYRICS="%lyricsfile%"%haslyrics% -T "DISCNUMBER=%cdnumber%" -T "TOTALDISCS=%totalcds%" -T "TOTALTRACKS=%numtracks%" %hascover%--picture="%coverfile%"%hascover% %source% -o %dest%
TOC of the extracted CD
Track | Start | Length | Start sector | End sector
---------------------------------------------------------
1 | 0:00.33 | 2:18.42 | 33 | 10424
2 | 2:19.00 | 10:10.18 | 10425 | 56192
3 | 12:29.18 | 3:50.50 | 56193 | 73492
4 | 16:19.68 | 4:07.30 | 73493 | 92047
5 | 20:27.23 | 2:59.35 | 92048 | 105507
6 | 23:26.58 | 3:37.42 | 105508 | 121824
7 | 27:04.25 | 2:22.58 | 121825 | 132532
8 | 29:27.08 | 3:15.27 | 132533 | 147184
9 | 32:42.35 | 1:44.33 | 147185 | 155017
10 | 34:26.68 | 2:54.25 | 155018 | 168092
11 | 37:21.18 | 1:13.52 | 168093 | 173619
12 | 38:34.70 | 2:04.70 | 173620 | 182989
13 | 40:39.65 | 1:21.30 | 182990 | 189094
14 | 42:01.20 | 3:15.33 | 189095 | 203752
15 | 45:16.53 | 2:11.30 | 203753 | 213607
16 | 47:28.08 | 3:47.47 | 213608 | 230679
Range status and errors
Selected range
Filename C:\RIP\Handel - Messiah (Hogwood) CD2.wav
Peak level 96.2 %
Extraction speed 2.8 X
Range quality 100.0 %
Test CRC 93450112
Copy CRC 93450112
Copy OK
No errors occurred
AccurateRip summary
Track 1 accurately ripped (confidence 19) [70734E23] (AR v2)
Track 2 accurately ripped (confidence 17) [0AD9D3DB] (AR v2)
Track 3 accurately ripped (confidence 18) [17086816] (AR v2)
Track 4 accurately ripped (confidence 19) [C838DE45] (AR v2)
Track 5 accurately ripped (confidence 17) [765E3054] (AR v2)
Track 6 accurately ripped (confidence 17) [EED6CE5D] (AR v2)
Track 7 accurately ripped (confidence 18) [93DFECCA] (AR v2)
Track 8 accurately ripped (confidence 16) [F5E3DA2A] (AR v2)
Track 9 accurately ripped (confidence 18) [35D83B37] (AR v2)
Track 10 accurately ripped (confidence 18) [0C48D504] (AR v2)
Track 11 accurately ripped (confidence 19) [D202BD50] (AR v2)
Track 12 accurately ripped (confidence 18) [3008D0DA] (AR v2)
Track 13 accurately ripped (confidence 19) [0BC3D53C] (AR v2)
Track 14 accurately ripped (confidence 19) [5ED7EA6A] (AR v2)
Track 15 accurately ripped (confidence 18) [CA7CEF9B] (AR v2)
Track 16 accurately ripped (confidence 18) [605D97CF] (AR v2)
All tracks accurately ripped
End of status report
==== Log checksum AA628AB213940137F5042F0C04EEF9A88120008F3E1C614667041863D0EA8860 ====

Лог создания рипа CD3

Exact Audio Copy V1.0 beta 3 from 29. August 2011
EAC extraction logfile from 18. August 2013, 16:45
Academy of Ancient Music, Christopher Hogwood / Messiah CD3
Used drive : TSSTcorp CDDVDW Adapter: 0 ID: 0
Read mode : Secure
Utilize accurate stream : Yes
Defeat audio cache : Yes
Make use of C2 pointers : No
Read offset correction : 6
Overread into Lead-In and Lead-Out : No
Fill up missing offset samples with silence : Yes
Delete leading and trailing silent blocks : No
Null samples used in CRC calculations : Yes
Used interface : Installed external ASPI interface
Used output format : User Defined Encoder
Selected bitrate : 768 kBit/s
Quality : High
Add ID3 tag : No
Command line compressor : C:\Program Files (x86)\Exact Audio Copy\FLAC\FLAC.EXE
Additional command line options : -6 -V -T "ARTIST=%artist%" -T "TITLE=%title%" -T "ALBUM=%albumtitle%" -T "DATE=%year%" -T "TRACKNUMBER=%tracknr%" -T "GENRE=%genre%" -T "COMMENT=%comment%" -T "BAND=%albuminterpret%" -T "ALBUMARTIST=%albuminterpret%" -T "COMPOSER=%composer%" %haslyrics%--tag-from-file=LYRICS="%lyricsfile%"%haslyrics% -T "DISCNUMBER=%cdnumber%" -T "TOTALDISCS=%totalcds%" -T "TOTALTRACKS=%numtracks%" %hascover%--picture="%coverfile%"%hascover% %source% -o %dest%
TOC of the extracted CD
Track | Start | Length | Start sector | End sector
---------------------------------------------------------
1 | 0:00.33 | 5:35.37 | 33 | 25194
2 | 5:35.70 | 2:02.20 | 25195 | 34364
3 | 7:38.15 | 9:00.35 | 34365 | 74899
4 | 16:38.50 | 1:22.20 | 74900 | 81069
5 | 18:00.70 | 2:18.55 | 81070 | 91474
6 | 20:19.50 | 4:22.03 | 91475 | 111127
7 | 24:41.53 | 3:44.00 | 111128 | 127927
8 | 28:25.53 | 3:22.55 | 127928 | 143132
Range status and errors
Selected range
Filename C:\RIP\Handel - Messiah (Hogwood) CD3.wav
Peak level 96.3 %
Extraction speed 2.5 X
Range quality 100.0 %
Test CRC 6BE42FD1
Copy CRC 6BE42FD1
Copy OK
No errors occurred
AccurateRip summary
Track 1 accurately ripped (confidence 19) [EB946625] (AR v2)
Track 2 accurately ripped (confidence 19) [BEFAA36A] (AR v2)
Track 3 accurately ripped (confidence 19) [59B2A5D5] (AR v2)
Track 4 accurately ripped (confidence 19) [A992795F] (AR v2)
Track 5 accurately ripped (confidence 19) [9C34BB56] (AR v2)
Track 6 accurately ripped (confidence 19) [B5AE86F1] (AR v2)
Track 7 accurately ripped (confidence 19) [0D2079DE] (AR v2)
Track 8 accurately ripped (confidence 18) [B0DDEF7B] (AR v2)
All tracks accurately ripped
End of status report
==== Log checksum 2746B5F429DFC96185F4A7F8CB89BBFCCC062679F3962BEEA7D28050FD5BD24E ====
[teatrix.ru].t8000.torrent 
Торрент: Зарегистрирован [ 2015-10-14 02:49 ] · 08C33A5CE9E4AF27F2B242FC08FA22139700C571

Скачать .torrent

Скачать

14 KB

Статус: проверено
Скачан: 1 раз
Размер: 636 MB
terms.php



Быстрый ответ

Имя:

      
Для отправки сообщений необходимо включить JavaScript
Показать сообщения:    

Текущее время: 10-Дек 19:40

Часовой пояс: UTC + 3


Вы можете начинать темы
Вы можете отвечать на сообщения
Вы не можете редактировать свои сообщения
Вы не можете удалять свои сообщения
Вы не можете голосовать в опросах
Вы не можете прикреплять файлы к сообщениям
Вы можете скачивать файлы