(choral) Академический мужской хор МИФИ (Bach, Schubert, Brahms, Verdi, Weber, Mozart, Gounod, Бортнянский, Чесноков, Чайковский, Рахманинов, Римский-Корсаков) - 2007, FLAC (tracks+.cue) lossless


Статистика раздачи [Обновить пиров]
Размер:  548 MB   |    Зарегистрирован:  1 год 1 месяц   |    Скачан:  0 раз

Полного источника не было: Никогда

 
   
 
 
 

[Цитировать]

Академический мужской хор МИФИ
Жанр: choral
Страна-производитель диска: Россия
Год издания диска: 2007
Аудиокодек: FLAC
Тип рипа: tracks+.cue
Битрейт аудио: lossless
Продолжительность: 2:10:12
Источник: собственный рип
Наличие сканов в содержимом раздачи: нет
Треклист:
Диск 1:
01. Бах. Gott, der du die Liebe heisst
02. Библ. Ave Maria
03. Шуберт. Ave Maria
04. Галлус. Ascendit Deus
05. Лотти. Vere languones nostras
06. Брамс. Рапсодия для альта, мужского хора и оркестра
07. Бортнянский. Концерт № 6. 'Слава в вышних Богу'
08. П.Чесноков. Ангел вопияше
09. П.Чесноков. Разбойника благоразумного
10. П.Чесноков. Совет превечный
11. П.Чесноков. Да исправится молитва моя
12. Рахманинов. Концерт 'В молитвах неусыпающую Богородицу'
13. П.Чайковский. Увертюра '1812 год'
Диск 2:
01. Господь просвещение мое
02. Благослови, душе моя, Господа
03. Единородный сыне
04. Моцарт. Confutatis и Lacrimosa из Реквиема
05. Верди. Хор рабов из оперы 'Набукко'
06. Вебер. Хор охотников из оперы 'Вольный стрелок'
07. Рубинштейн. Хор 'Ноченька' из оперы 'Демон'
08. Гуно. Хор солдат из оперы 'Фауст'
09. Римский-Корсаков. Речитатив Левко и песня про Голову из оперы 'Майская ночь'
10. П.Чайковский. Что смолкнул веселия глас?
11. П.Чайковский. Нет, только тот, кто знал
12. Соловьёв-Седой. Баллада о солдате
13. М.Блантер. В лесу прифронтовом
14. В тёмном лесе
15. Донцы-молодцы
16. Пчёлочка златая
17. Кюсс (обр. Соколова). Амурские волны
Исполнители:
Лауреат международных, всероссийских и всесоюзных конкурсов, лауреат премии имени Ленинского комсомола Народный коллектив России Академический мужской хор Московского ордена Трудового Красного Знамени инженерно-физического института

Лог создания рипа

Exact Audio Copy V1.0 beta 3 from 29. August 2011
EAC extraction logfile from 6. January 2014, 11:44
Академический мужской хор МИФИ / Диск первый
Used drive : HL-DT-STDVDRAM GP08NU20 Adapter: 1 ID: 1
Read mode : SecureUtilize accurate stream : YesDefeat audio cache : YesMake use of C2 pointers : No
Read offset correction : 102Overread into Lead-In and Lead-Out : NoFill up missing offset samples with silence : YesDelete leading and trailing silent blocks : NoNull samples used in CRC calculations : YesUsed interface : Native Win32 interface for Win NT & 2000Gap handling : Appended to previous track
Used output format : User Defined EncoderSelected bitrate : 1024 kBit/sQuality : HighAdd ID3 tag : NoCommand line compressor : C:\Program Files (x86)\Exact Audio Copy\FLAC\FLAC.EXEAdditional command line options : -8 -V -T "ARTIST=%artist%" -T "TITLE=%title%" -T "ALBUM=%albumtitle%" -T "DATE=%year%" -T "TRACKNUMBER=%tracknr%" -T "GENRE=%genre%" -T "COMMENT=%comment%" -T "BAND=%albuminterpret%" -T "ALBUMARTIST=%albuminterpret%" -T "COMPOSER=%composer%" %haslyrics%--tag-from-file=LYRICS="%lyricsfile%"%haslyrics% -T "DISCNUMBER=%cdnumber%" -T "TOTALDISCS=%totalcds%" -T "TOTALTRACKS=%numtracks%" %hascover%--picture="%coverfile%"%hascover% %source% -o %dest%
TOC of the extracted CD
Track | Start | Length | Start sector | End sector --------------------------------------------------------- 1 | 0:00.00 | 6:15.37 | 0 | 28161 2 | 6:15.37 | 3:53.20 | 28162 | 45656 3 | 10:08.57 | 5:41.45 | 45657 | 71276 4 | 15:50.27 | 1:23.33 | 71277 | 77534 5 | 17:13.60 | 3:07.35 | 77535 | 91594 6 | 20:21.20 | 13:33.02 | 91595 | 152571 7 | 33:54.22 | 4:22.43 | 152572 | 172264 8 | 38:16.65 | 3:12.45 | 172265 | 186709 9 | 41:29.35 | 1:58.12 | 186710 | 195571 10 | 43:27.47 | 3:33.50 | 195572 | 211596 11 | 47:01.22 | 6:07.70 | 211597 | 239191 12 | 53:09.17 | 7:08.65 | 239192 | 271356 13 | 60:18.07 | 13:50.05 | 271357 | 333611
Track 1
Filename F:\Music\Академический мужской хор МИФИ\CD 1 - Диск первый [20XX]\01. Академический мужской хор МИФИ - Бах. Gott, der du die Liebe heisst.wav
Pre-gap length 0:00:02.00
Peak level 55.5 % Extraction speed 1.3 X Track quality 99.9 % Test CRC DB778278 Copy CRC DB778278 Track not present in AccurateRip database Copy OK
Track 2
Filename F:\Music\Академический мужской хор МИФИ\CD 1 - Диск первый [20XX]\02. Академический мужской хор МИФИ - Библ. Ave Maria.wav
Peak level 51.2 % Extraction speed 1.3 X Track quality 99.9 % Test CRC 269DEC3A Copy CRC 269DEC3A Track not present in AccurateRip database Copy OK
Track 3
Filename F:\Music\Академический мужской хор МИФИ\CD 1 - Диск первый [20XX]\03. Академический мужской хор МИФИ - Шуберт. Ave Maria.wav
Peak level 49.8 % Extraction speed 1.5 X Track quality 99.9 % Test CRC 9C1EE607 Copy CRC 9C1EE607 Track not present in AccurateRip database Copy OK
Track 4
Filename F:\Music\Академический мужской хор МИФИ\CD 1 - Диск первый [20XX]\04. Академический мужской хор МИФИ - Галлус. Ascendit Deus.wav
Peak level 42.4 % Extraction speed 1.3 X Track quality 100.0 % Test CRC 39D0CCB7 Copy CRC 39D0CCB7 Track not present in AccurateRip database Copy OK
Track 5
Filename F:\Music\Академический мужской хор МИФИ\CD 1 - Диск первый [20XX]\05. Академический мужской хор МИФИ - Лотти. Vere languones nostras.wav
Peak level 59.5 % Extraction speed 1.7 X Track quality 100.0 % Test CRC A4746401 Copy CRC A4746401 Track not present in AccurateRip database Copy OK
Track 6
Filename F:\Music\Академический мужской хор МИФИ\CD 1 - Диск первый [20XX]\06. Академический мужской хор МИФИ - Брамс. Рапсодия для альта, мужского хора и оркестра.wav
Peak level 98.8 % Extraction speed 2.0 X Track quality 99.9 % Test CRC 64274DC3 Copy CRC 64274DC3 Track not present in AccurateRip database Copy OK
Track 7
Filename F:\Music\Академический мужской хор МИФИ\CD 1 - Диск первый [20XX]\07. Академический мужской хор МИФИ - Бортнянский. Концерт № 6. ''Слава в вышних Богу''.wav
Peak level 63.5 % Extraction speed 1.9 X Track quality 99.9 % Test CRC DF01885A Copy CRC DF01885A Track not present in AccurateRip database Copy OK
Track 8
Filename F:\Music\Академический мужской хор МИФИ\CD 1 - Диск первый [20XX]\08. Академический мужской хор МИФИ - П.Чеснаков. Ангел вопияше.wav
Peak level 62.3 % Extraction speed 2.1 X Track quality 100.0 % Test CRC C2EA46B8 Copy CRC C2EA46B8 Track not present in AccurateRip database Copy OK
Track 9
Filename F:\Music\Академический мужской хор МИФИ\CD 1 - Диск первый [20XX]\09. Академический мужской хор МИФИ - П.Чеснаков. Разбойника благоразумного.wav
Peak level 55.2 % Extraction speed 1.5 X Track quality 99.9 % Test CRC 9D16FD97 Copy CRC 9D16FD97 Track not present in AccurateRip database Copy OK
Track 10
Filename F:\Music\Академический мужской хор МИФИ\CD 1 - Диск первый [20XX]\10. Академический мужской хор МИФИ - П.Чеснаков. Совет превечный.wav
Peak level 73.5 % Extraction speed 2.2 X Track quality 100.0 % Test CRC 8FFB8BC5 Copy CRC 8FFB8BC5 Track not present in AccurateRip database Copy OK
Track 11
Filename F:\Music\Академический мужской хор МИФИ\CD 1 - Диск первый [20XX]\11. Академический мужской хор МИФИ - П.Чеснаков. Да исправится молитва моя.wav
Peak level 87.7 % Extraction speed 2.5 X Track quality 100.0 % Test CRC CBFDE47A Copy CRC CBFDE47A Track not present in AccurateRip database Copy OK
Track 12
Filename F:\Music\Академический мужской хор МИФИ\CD 1 - Диск первый [20XX]\12. Академический мужской хор МИФИ - Рахманинов. Концерт ''В молитвах неусыпающую Богородицу''.wav
Peak level 69.6 % Extraction speed 2.6 X Track quality 100.0 % Test CRC 9CA513C8 Copy CRC 9CA513C8 Track not present in AccurateRip database Copy OK
Track 13
Filename F:\Music\Академический мужской хор МИФИ\CD 1 - Диск первый [20XX]\13. Академический мужской хор МИФИ - П.Чайковский. Увертюра ''1812 год''.wav
Peak level 92.1 % Extraction speed 2.9 X Track quality 100.0 % Test CRC 98BE83B7 Copy CRC 98BE83B7 Track not present in AccurateRip database Copy OK
None of the tracks are present in the AccurateRip database
No errors occurred
End of status report
--------------------------------------------------------------------------------------------------------
Exact Audio Copy V1.0 beta 3 from 29. August 2011
EAC extraction logfile from 5. January 2014, 19:16
Академический мужской хор МИФИ / Диск второй
Used drive : HL-DT-STDVDRAM GP08NU20 Adapter: 1 ID: 1
Read mode : SecureUtilize accurate stream : YesDefeat audio cache : YesMake use of C2 pointers : No
Read offset correction : 102Overread into Lead-In and Lead-Out : NoFill up missing offset samples with silence : YesDelete leading and trailing silent blocks : NoNull samples used in CRC calculations : YesUsed interface : Native Win32 interface for Win NT & 2000Gap handling : Appended to previous track
Used output format : User Defined EncoderSelected bitrate : 1024 kBit/sQuality : HighAdd ID3 tag : NoCommand line compressor : C:\Program Files (x86)\Exact Audio Copy\FLAC\FLAC.EXEAdditional command line options : -8 -V -T "ARTIST=%artist%" -T "TITLE=%title%" -T "ALBUM=%albumtitle%" -T "DATE=%year%" -T "TRACKNUMBER=%tracknr%" -T "GENRE=%genre%" -T "COMMENT=%comment%" -T "BAND=%albuminterpret%" -T "ALBUMARTIST=%albuminterpret%" -T "COMPOSER=%composer%" %haslyrics%--tag-from-file=LYRICS="%lyricsfile%"%haslyrics% -T "DISCNUMBER=%cdnumber%" -T "TOTALDISCS=%totalcds%" -T "TOTALTRACKS=%numtracks%" %hascover%--picture="%coverfile%"%hascover% %source% -o %dest%
TOC of the extracted CD
Track | Start | Length | Start sector | End sector --------------------------------------------------------- 1 | 0:00.00 | 2:43.20 | 0 | 12244 2 | 2:43.20 | 2:46.47 | 12245 | 24741 3 | 5:29.67 | 1:41.39 | 24742 | 32355 4 | 7:11.31 | 6:31.13 | 32356 | 61693 5 | 13:42.44 | 4:08.71 | 61694 | 80364 6 | 17:51.40 | 2:34.21 | 80365 | 91935 7 | 20:25.61 | 5:00.51 | 91936 | 114486 8 | 25:26.37 | 3:07.43 | 114487 | 128554 9 | 28:34.05 | 3:46.23 | 128555 | 145527 10 | 32:20.28 | 2:27.02 | 145528 | 156554 11 | 34:47.30 | 3:15.25 | 156555 | 171204 12 | 38:02.55 | 3:45.54 | 171205 | 188133 13 | 41:48.34 | 3:38.25 | 188134 | 204508 14 | 45:26.59 | 2:01.19 | 204509 | 213602 15 | 47:28.03 | 2:31.59 | 213603 | 224986 16 | 49:59.62 | 2:34.06 | 224987 | 236542 17 | 52:33.68 | 3:30.65 | 236543 | 252357
Track 1
Filename F:\Music\Академический мужской хор МИФИ\CD 2 - Диск второй [2007]\01. Академический мужской хор МИФИ - Господь просвещение мое.wav
Pre-gap length 0:00:02.00
Peak level 89.8 % Extraction speed 0.4 X Track quality 99.5 % Test CRC 103BE44E Copy CRC 103BE44E Track not present in AccurateRip database Copy OK
Track 2
Filename F:\Music\Академический мужской хор МИФИ\CD 2 - Диск второй [2007]\02. Академический мужской хор МИФИ - Благослови, душе моя, Господа.wav
Peak level 84.4 % Extraction speed 1.1 X Track quality 99.9 % Test CRC A7FD7899 Copy CRC A7FD7899 Track not present in AccurateRip database Copy OK
Track 3
Filename F:\Music\Академический мужской хор МИФИ\CD 2 - Диск второй [2007]\03. Академический мужской хор МИФИ - Единородный сыне.wav
Peak level 91.0 % Extraction speed 1.2 X Track quality 100.0 % Test CRC 3EAC2468 Copy CRC 3EAC2468 Track not present in AccurateRip database Copy OK
Track 4
Filename F:\Music\Академический мужской хор МИФИ\CD 2 - Диск второй [2007]\04. Академический мужской хор МИФИ - Моцарт. Confutatis и Lacrimosa из Реквиема.wav
Peak level 97.1 % Extraction speed 1.6 X Track quality 100.0 % Test CRC BD58CD2F Copy CRC BD58CD2F Track not present in AccurateRip database Copy OK
Track 5
Filename F:\Music\Академический мужской хор МИФИ\CD 2 - Диск второй [2007]\05. Академический мужской хор МИФИ - Верди. Хор рабов из оперы ''Набукко''.wav
Peak level 97.1 % Extraction speed 1.7 X Track quality 100.0 % Test CRC EBADCF3C Copy CRC EBADCF3C Track not present in AccurateRip database Copy OK
Track 6
Filename F:\Music\Академический мужской хор МИФИ\CD 2 - Диск второй [2007]\06. Академический мужской хор МИФИ - Вебер. Хор охотников из оперы ''Вольный стрелок''.wav
Peak level 97.1 % Extraction speed 1.6 X Track quality 100.0 % Test CRC 1D982CC9 Copy CRC 1D982CC9 Track not present in AccurateRip database Copy OK
Track 7
Filename F:\Music\Академический мужской хор МИФИ\CD 2 - Диск второй [2007]\07. Академический мужской хор МИФИ - Рубенштейн. Хор ''Ноченька'' из оперы ''Демон''.wav
Peak level 97.2 % Extraction speed 1.9 X Track quality 100.0 % Test CRC 2BBED2B9 Copy CRC 2BBED2B9 Track not present in AccurateRip database Copy OK
Track 8
Filename F:\Music\Академический мужской хор МИФИ\CD 2 - Диск второй [2007]\08. Академический мужской хор МИФИ - Гуно. Хор солдат из оперы ''Фауст''.wav
Peak level 97.2 % Extraction speed 1.6 X Track quality 99.9 % Test CRC EE2EE2E8 Copy CRC EE2EE2E8 Track not present in AccurateRip database Copy OK
Track 9
Filename F:\Music\Академический мужской хор МИФИ\CD 2 - Диск второй [2007]\09. Академический мужской хор МИФИ - Римский-Корсаков. Речитатив Левко и песня про Голову из оперы ''Майская ночь''.wav
Peak level 94.7 % Extraction speed 2.0 X Track quality 100.0 % Test CRC E3DF82BE Copy CRC E3DF82BE Track not present in AccurateRip database Copy OK
Track 10
Filename F:\Music\Академический мужской хор МИФИ\CD 2 - Диск второй [2007]\10. Академический мужской хор МИФИ - П.Чайковский. Что смолкнул веселия глас.wav
Peak level 76.2 % Extraction speed 1.5 X Track quality 99.9 % Test CRC 5EEE205F Copy CRC 5EEE205F Track not present in AccurateRip database Copy OK
Track 11
Filename F:\Music\Академический мужской хор МИФИ\CD 2 - Диск второй [2007]\11. Академический мужской хор МИФИ - П.Чайковский. Нет, только тот, кто знал.wav
Peak level 97.1 % Extraction speed 2.0 X Track quality 100.0 % Test CRC 886DF01E Copy CRC 886DF01E Track not present in AccurateRip database Copy OK
Track 12
Filename F:\Music\Академический мужской хор МИФИ\CD 2 - Диск второй [2007]\12. Академический мужской хор МИФИ - Соловьёв-Седой. Баллада о солдате.wav
Peak level 97.4 % Extraction speed 2.1 X Track quality 100.0 % Test CRC E81A123B Copy CRC E81A123B Track not present in AccurateRip database Copy OK
Track 13
Filename F:\Music\Академический мужской хор МИФИ\CD 2 - Диск второй [2007]\13. Академический мужской хор МИФИ - М.Блантер. В лесу прифронтовом.wav
Peak level 97.1 % Extraction speed 2.2 X Track quality 100.0 % Test CRC 034F913E Copy CRC 034F913E Track not present in AccurateRip database Copy OK
Track 14
Filename F:\Music\Академический мужской хор МИФИ\CD 2 - Диск второй [2007]\14. Академический мужской хор МИФИ - В тёмном лесе.wav
Peak level 97.4 % Extraction speed 2.0 X Track quality 100.0 % Test CRC BD9063FD Copy CRC BD9063FD Track not present in AccurateRip database Copy OK
Track 15
Filename F:\Music\Академический мужской хор МИФИ\CD 2 - Диск второй [2007]\15. Академический мужской хор МИФИ - Донцы-молодцы.wav
Peak level 97.0 % Extraction speed 2.2 X Track quality 100.0 % Test CRC BF32E102 Copy CRC BF32E102 Track not present in AccurateRip database Copy OK
Track 16
Filename F:\Music\Академический мужской хор МИФИ\CD 2 - Диск второй [2007]\16. Академический мужской хор МИФИ - Пчёлочка златая.wav
Peak level 97.0 % Extraction speed 2.2 X Track quality 100.0 % Test CRC 23624C1E Copy CRC 23624C1E Track not present in AccurateRip database Copy OK
Track 17
Filename F:\Music\Академический мужской хор МИФИ\CD 2 - Диск второй [2007]\17. Академический мужской хор МИФИ - Кюсс (обр. Соколова). Амурские волны.wav
Peak level 97.1 % Extraction speed 2.3 X Track quality 100.0 % Test CRC EC1E01F5 Copy CRC EC1E01F5 Track not present in AccurateRip database Copy OK
None of the tracks are present in the AccurateRip database
No errors occurred
End of status report

Содержание индексной карты (.CUE)

REM GENRE ChorusREM DISCID A411600DREM COMMENT "ExactAudioCopy v1.0b3"PERFORMER "Академический мужской хор МИФИ"TITLE "Диск первый"FILE "01. Академический мужской хор МИФИ - Бах. Gott, der du die Liebe heisst.wav" WAVE TRACK 01 AUDIO TITLE "Бах. Gott, der du die Liebe heisst" PERFORMER "Академический мужской хор МИФИ" INDEX 01 00:00:00FILE "02. Академический мужской хор МИФИ - Библ. Ave Maria.wav" WAVE TRACK 02 AUDIO TITLE "Библ. Ave Maria" PERFORMER "Академический мужской хор МИФИ" INDEX 01 00:00:00FILE "03. Академический мужской хор МИФИ - Шуберт. Ave Maria.wav" WAVE TRACK 03 AUDIO TITLE "Шуберт. Ave Maria" PERFORMER "Академический мужской хор МИФИ" INDEX 01 00:00:00FILE "04. Академический мужской хор МИФИ - Галлус. Ascendit Deus.wav" WAVE TRACK 04 AUDIO TITLE "Галлус. Ascendit Deus" PERFORMER "Академический мужской хор МИФИ" INDEX 01 00:00:00FILE "05. Академический мужской хор МИФИ - Лотти. Vere languones nostras.wav" WAVE TRACK 05 AUDIO TITLE "Лотти. Vere languones nostras" PERFORMER "Академический мужской хор МИФИ" INDEX 01 00:00:00FILE "06. Академический мужской хор МИФИ - Брамс. Рапсодия для альта, мужского хора и оркестра.wav" WAVE TRACK 06 AUDIO TITLE "Брамс. Рапсодия для альта, мужского хора и оркестра" PERFORMER "Академический мужской хор МИФИ" INDEX 01 00:00:00FILE "07. Академический мужской хор МИФИ - Бортнянский. Концерт № 6. ''Слава в вышних Богу''.wav" WAVE TRACK 07 AUDIO TITLE "Бортнянский. Концерт № 6. 'Слава в вышних Богу'" PERFORMER "Академический мужской хор МИФИ" INDEX 01 00:00:00FILE "08. Академический мужской хор МИФИ - П.Чеснаков. Ангел вопияше.wav" WAVE TRACK 08 AUDIO TITLE "П.Чеснаков. Ангел вопияше" PERFORMER "Академический мужской хор МИФИ" INDEX 01 00:00:00FILE "09. Академический мужской хор МИФИ - П.Чеснаков. Разбойника благоразумного.wav" WAVE TRACK 09 AUDIO TITLE "П.Чеснаков. Разбойника благоразумного" PERFORMER "Академический мужской хор МИФИ" INDEX 01 00:00:00FILE "10. Академический мужской хор МИФИ - П.Чеснаков. Совет превечный.wav" WAVE TRACK 10 AUDIO TITLE "П.Чеснаков. Совет превечный" PERFORMER "Академический мужской хор МИФИ" INDEX 01 00:00:00FILE "11. Академический мужской хор МИФИ - П.Чеснаков. Да исправится молитва моя.wav" WAVE TRACK 11 AUDIO TITLE "П.Чеснаков. Да исправится молитва моя" PERFORMER "Академический мужской хор МИФИ" INDEX 01 00:00:00FILE "12. Академический мужской хор МИФИ - Рахманинов. Концерт ''В молитвах неусыпающую Богородицу''.wav" WAVE TRACK 12 AUDIO TITLE "Рахманинов. Концерт 'В молитвах неусыпающую Богородицу'" PERFORMER "Академический мужской хор МИФИ" INDEX 01 00:00:00FILE "13. Академический мужской хор МИФИ - П.Чайковский. Увертюра ''1812 год''.wav" WAVE TRACK 13 AUDIO TITLE "П.Чайковский. Увертюра '1812 год'" PERFORMER "Академический мужской хор МИФИ" INDEX 01 00:00:00------------------------------------------------------------------------------------------------------------------------------------------REM GENRE ChorusREM DATE 2007REM DISCID D20D2411REM COMMENT "ExactAudioCopy v1.0b3"PERFORMER "Академический мужской хор МИФИ"TITLE "Диск второй"FILE "01. Академический мужской хор МИФИ - Господь просвещение мое.wav" WAVE TRACK 01 AUDIO TITLE "Господь просвещение мое" PERFORMER "Академический мужской хор МИФИ" INDEX 01 00:00:00FILE "02. Академический мужской хор МИФИ - Благослови, душе моя, Господа.wav" WAVE TRACK 02 AUDIO TITLE "Благослови, душе моя, Господа" PERFORMER "Академический мужской хор МИФИ" INDEX 01 00:00:00FILE "03. Академический мужской хор МИФИ - Единородный сыне.wav" WAVE TRACK 03 AUDIO TITLE "Единородный сыне" PERFORMER "Академический мужской хор МИФИ" INDEX 01 00:00:00FILE "04. Академический мужской хор МИФИ - Моцарт. Confutatis и Lacrimosa из Реквиема.wav" WAVE TRACK 04 AUDIO TITLE "Моцарт. Confutatis и Lacrimosa из Реквиема" PERFORMER "Академический мужской хор МИФИ" INDEX 01 00:00:00FILE "05. Академический мужской хор МИФИ - Верди. Хор рабов из оперы ''Набукко''.wav" WAVE TRACK 05 AUDIO TITLE "Верди. Хор рабов из оперы 'Набукко'" PERFORMER "Академический мужской хор МИФИ" INDEX 01 00:00:00FILE "06. Академический мужской хор МИФИ - Вебер. Хор охотников из оперы ''Вольный стрелок''.wav" WAVE TRACK 06 AUDIO TITLE "Вебер. Хор охотников из оперы 'Вольный стрелок'" PERFORMER "Академический мужской хор МИФИ" INDEX 01 00:00:00FILE "07. Академический мужской хор МИФИ - Рубенштейн. Хор ''Ноченька'' из оперы ''Демон''.wav" WAVE TRACK 07 AUDIO TITLE "Рубенштейн. Хор 'Ноченька' из оперы 'Демон'" PERFORMER "Академический мужской хор МИФИ" INDEX 01 00:00:00FILE "08. Академический мужской хор МИФИ - Гуно. Хор солдат из оперы ''Фауст''.wav" WAVE TRACK 08 AUDIO TITLE "Гуно. Хор солдат из оперы 'Фауст'" PERFORMER "Академический мужской хор МИФИ" INDEX 01 00:00:00FILE "09. Академический мужской хор МИФИ - Римский-Корсаков. Речитатив Левко и песня про Голову из оперы ''Майская ночь''.wav" WAVE TRACK 09 AUDIO TITLE "Римский-Корсаков. Речитатив Левко и песня про Голову из оперы 'Майская ночь'" PERFORMER "Академический мужской хор МИФИ" INDEX 01 00:00:00FILE "10. Академический мужской хор МИФИ - П.Чайковский. Что смолкнул веселия глас.wav" WAVE TRACK 10 AUDIO TITLE "П.Чайковский. Что смолкнул веселия глас?" PERFORMER "Академический мужской хор МИФИ" INDEX 01 00:00:00FILE "11. Академический мужской хор МИФИ - П.Чайковский. Нет, только тот, кто знал.wav" WAVE TRACK 11 AUDIO TITLE "П.Чайковский. Нет, только тот, кто знал" PERFORMER "Академический мужской хор МИФИ" INDEX 01 00:00:00FILE "12. Академический мужской хор МИФИ - Соловьёв-Седой. Баллада о солдате.wav" WAVE TRACK 12 AUDIO TITLE "Соловьёв-Седой. Баллада о солдате" PERFORMER "Академический мужской хор МИФИ" INDEX 01 00:00:00FILE "13. Академический мужской хор МИФИ - М.Блантер. В лесу прифронтовом.wav" WAVE TRACK 13 AUDIO TITLE "М.Блантер. В лесу прифронтовом" PERFORMER "Академический мужской хор МИФИ" INDEX 01 00:00:00FILE "14. Академический мужской хор МИФИ - В тёмном лесе.wav" WAVE TRACK 14 AUDIO TITLE "В тёмном лесе" PERFORMER "Академический мужской хор МИФИ" INDEX 01 00:00:00FILE "15. Академический мужской хор МИФИ - Донцы-молодцы.wav" WAVE TRACK 15 AUDIO TITLE "Донцы-молодцы" PERFORMER "Академический мужской хор МИФИ" INDEX 01 00:00:00FILE "16. Академический мужской хор МИФИ - Пчёлочка златая.wav" WAVE TRACK 16 AUDIO TITLE "Пчёлочка златая" PERFORMER "Академический мужской хор МИФИ" INDEX 01 00:00:00FILE "17. Академический мужской хор МИФИ - Кюсс (обр. Соколова). Амурские волны.wav" WAVE TRACK 17 AUDIO TITLE "Кюсс (обр. Соколова). Амурские волны" PERFORMER "Академический мужской хор МИФИ" INDEX 01 00:00:00
[teatrix.ru].t8001.torrent 
Торрент: Зарегистрирован [ 2015-10-14 02:49 ] · 3BA7DA987431B36A58B9040324AD9F62F01D8469

Скачать .torrent

Скачать

18 KB

Статус: проверено
Скачан: 0 раз
Размер: 548 MB
terms.php



Быстрый ответ

Имя:

      
Для отправки сообщений необходимо включить JavaScript
Показать сообщения:    

Текущее время: 04-Дек 11:14

Часовой пояс: UTC + 3


Вы можете начинать темы
Вы можете отвечать на сообщения
Вы не можете редактировать свои сообщения
Вы не можете удалять свои сообщения
Вы не можете голосовать в опросах
Вы не можете прикреплять файлы к сообщениям
Вы можете скачивать файлы