(Classical, sacred) Samuel Scheidt - Sacrae Cantiones - Vox Luminis, Lionel Meunier - 2010, FLAC (image+.cue) lossless


Статистика раздачи [Обновить пиров]
Размер:  260 MB   |    Зарегистрирован:  1 год 1 месяц   |    Скачан:  2 раза

Полного источника не было: 7 дней

 
   
 
 
 

[Цитировать]

Samuel Scheidt - Sacrae Cantiones - Vox Luminis, Lionel Meunier
Жанр: Classical, sacred
Страна-производитель диска: Belgium
Год издания диска: 2010
Издатель (лейбл): Ricercar
Номер по каталогу: RIC301
Дата записи: 2009
Аудиокодек: FLAC
Тип рипа: image+.cue
Битрейт аудио: lossless
Продолжительность: 61:11
Источник: собственный рип
Наличие сканов в содержимом раздачи: да
Треклист:
Samuel Scheidt (1587-1654)
[1] Surrexit Christus hodie
[2] Richte mich Gott
[3] Sende dein Licht und deine Wahreit
[4] Ist nicht Ephraim mein teurer Sohn
[5]-[7] Lobet im Himmel den Herrn
[8]-[16] Vater unser im Himmelreich
[17] Jauchzet Gott, alle Land
[18] Puer natus in Bethlehem
[19] Das Alte Jahr vergangen ist
Исполнители:
Vox Luminis
Lionel Meunier
direction

Лог создания рипа

Exact Audio Copy V1.0 beta 3 from 29. August 2011
EAC extraction logfile from 22. December 2013, 20:37
Vox Luminis, Lionel Meunier / Scheidt - Sacrae Cantiones
Used drive : HL-DT-STDVDRAM GSA-4083N Adapter: 1 ID: 0
Read mode : SecureUtilize accurate stream : YesDefeat audio cache : YesMake use of C2 pointers : No
Read offset correction : 667Overread into Lead-In and Lead-Out : NoFill up missing offset samples with silence : YesDelete leading and trailing silent blocks : NoNull samples used in CRC calculations : YesUsed interface : Native Win32 interface for Win NT & 2000
Used output format : User Defined EncoderSelected bitrate : 896 kBit/sQuality : HighAdd ID3 tag : NoCommand line compressor : C:\Program Files\Exact Audio Copy\Flac\flac.exeAdditional command line options : -V -8 %source%
TOC of the extracted CD
Track | Start | Length | Start sector | End sector --------------------------------------------------------- 1 | 0:00.00 | 1:18.07 | 0 | 5856 2 | 1:18.07 | 3:19.16 | 5857 | 20797 3 | 4:37.23 | 5:29.26 | 20798 | 45498 4 | 10:06.49 | 6:33.70 | 45499 | 75043 5 | 16:40.44 | 3:58.38 | 75044 | 92931 6 | 20:39.07 | 1:50.22 | 92932 | 101203 7 | 22:29.29 | 3:43.53 | 101204 | 117981 8 | 26:13.07 | 6:06.20 | 117982 | 145451 9 | 32:19.27 | 2:01.07 | 145452 | 154533 10 | 34:20.34 | 2:04.05 | 154534 | 163838 11 | 36:24.39 | 1:56.61 | 163839 | 172599 12 | 38:21.25 | 2:20.19 | 172600 | 183118 13 | 40:41.44 | 1:57.68 | 183119 | 191961 14 | 42:39.37 | 1:44.11 | 191962 | 199772 15 | 44:23.48 | 1:42.17 | 199773 | 207439 16 | 46:05.65 | 1:14.54 | 207440 | 213043 17 | 47:20.44 | 6:45.43 | 213044 | 243461 18 | 54:06.12 | 1:18.70 | 243462 | 249381 19 | 55:25.07 | 5:44.51 | 249382 | 275232
Range status and errors
Selected range
Filename J:\New Music\Scheidt - Sacrae Cantiones\Scheidt - Sacrae Cantiones.wav
Peak level 89.6 % Extraction speed 2.6 X Range quality 100.0 % Test CRC 9A9B6E64 Copy CRC 9A9B6E64 Copy OK
No errors occurred
AccurateRip summary
Track 1 accurately ripped (confidence 6) [DB36189D] (AR v2)Track 2 accurately ripped (confidence 6) [ECCFCB40] (AR v2)Track 3 accurately ripped (confidence 6) [534A5CE0] (AR v2)Track 4 accurately ripped (confidence 6) [FC29AD0A] (AR v2)Track 5 accurately ripped (confidence 6) [C2179F29] (AR v2)Track 6 accurately ripped (confidence 6) [DA8F7378] (AR v2)Track 7 accurately ripped (confidence 6) [82E79DD7] (AR v2)Track 8 accurately ripped (confidence 6) [3B2A91BD] (AR v2)Track 9 accurately ripped (confidence 6) [08CE2F74] (AR v2)Track 10 accurately ripped (confidence 6) [1B63749C] (AR v2)Track 11 accurately ripped (confidence 6) [EF1BFE35] (AR v2)Track 12 accurately ripped (confidence 6) [B94E4775] (AR v2)Track 13 accurately ripped (confidence 6) [80F631AF] (AR v2)Track 14 accurately ripped (confidence 6) [A02BA847] (AR v2)Track 15 accurately ripped (confidence 6) [BFA2CA2C] (AR v2)Track 16 accurately ripped (confidence 6) [FDC016A2] (AR v2)Track 17 accurately ripped (confidence 6) [585BF28B] (AR v2)Track 18 accurately ripped (confidence 6) [F887F97E] (AR v2)Track 19 accurately ripped (confidence 6) [47907F55] (AR v2)
All tracks accurately ripped
End of status report
==== Log checksum 82664ACD9914FE06B3B75DA0BE2C46BA3B6EEE1CF746F6CD8E3D6E3CC144623A ====
[teatrix.ru].t8002.torrent 
Торрент: Зарегистрирован [ 2015-10-14 02:49 ] · 8E486BBB5C37AB8A3BAF54FBBE9CA88B3316A8F5

Скачать .torrent

Скачать

23 KB

Статус: проверено
Скачан: 2 раз
Размер: 260 MB
terms.php



Быстрый ответ

Имя:

      
Для отправки сообщений необходимо включить JavaScript
Показать сообщения:    

Текущее время: 04-Дек 13:17

Часовой пояс: UTC + 3


Вы можете начинать темы
Вы можете отвечать на сообщения
Вы не можете редактировать свои сообщения
Вы не можете удалять свои сообщения
Вы не можете голосовать в опросах
Вы не можете прикреплять файлы к сообщениям
Вы можете скачивать файлы