(Classical, Choral) Barsegh Kanachian - Chorals (Topikyan H., Yerevan Chamber Choir) - 1998, FLAC (image+.cue) lossless


Статистика раздачи [Обновить пиров]
Размер:  317 MB   |    Зарегистрирован:  1 год 1 месяц   |    Скачан:  0 раз

Полного источника не было: Никогда

 
   
 
 
 

[Цитировать]

Barsegh Kanachian - Chorals (Topikyan H., Yerevan Chamber Choir)
Жанр: Classical, Choral
Год издания диска: 1998
Издатель (лейбл): Harutyun Topikyan
Аудиокодек: FLAC
Тип рипа: image+.cue
Битрейт аудио: lossless
Продолжительность: 64:31
Источник: собственный рип
Наличие сканов в содержимом раздачи: да
Треклист:
1. Bam, porotan (1:35)
2. Sosin (3:51)
3. Shousho (3:28)
4. Dalilo (4:04)
5. Lousnakn elav (2:01)
6. Hop Giulizar (2:21)
7. Haireni karot (2:04)
8. Maralo (2:47)
9. Garoun ekav (0:56)
10. Oror (2:49)
11. Hoy-nar (4:25)
12. Nanor (13:06)
13. Tsenkele (2:42)
14. Naro djan (3:43)
15. Kamnerg (3:10)
16. Khaghagh gisher (2:46)
17. Khndjuik (4:10)
18. Varderi het (4:25)
Исполнители:
Harutyun Topikyan - Conductor
Yerevan Chamber Choir

LOG EAC

Exact Audio Copy V1.0 beta 3 from 29. August 2011
EAC extraction logfile from 5. January 2014, 14:05
Topikyan H., Yerevan Chamber Choir / Barsegh Kanachian - Chorals
Used drive : ATAPI iHAS122 C Adapter: 0 ID: 2
Read mode : SecureUtilize accurate stream : YesDefeat audio cache : YesMake use of C2 pointers : No
Read offset correction : 6Overread into Lead-In and Lead-Out : NoFill up missing offset samples with silence : YesDelete leading and trailing silent blocks : NoNull samples used in CRC calculations : YesUsed interface : Installed external ASPI interface
Used output format : User Defined EncoderSelected bitrate : 128 kBit/sQuality : HighAdd ID3 tag : NoCommand line compressor : C:\Program Files\Exact Audio Copy\Flac\flac.exe
TOC of the extracted CD
Track | Start | Length | Start sector | End sector --------------------------------------------------------- 1 | 0:00.00 | 1:35.02 | 0 | 7126 2 | 1:35.02 | 3:51.57 | 7127 | 24508 3 | 5:26.59 | 3:28.02 | 24509 | 40110 4 | 8:54.61 | 4:04.50 | 40111 | 58460 5 | 12:59.36 | 2:01.19 | 58461 | 67554 6 | 15:00.55 | 2:21.19 | 67555 | 78148 7 | 17:21.74 | 2:04.01 | 78149 | 87449 8 | 19:26.00 | 2:47.65 | 87450 | 100039 9 | 22:13.65 | 0:56.57 | 100040 | 104296 10 | 23:10.47 | 2:49.57 | 104297 | 117028 11 | 26:00.29 | 4:25.59 | 117029 | 136962 12 | 30:26.13 | 13:06.37 | 136963 | 195949 13 | 43:32.50 | 2:42.74 | 195950 | 208173 14 | 46:15.49 | 3:43.38 | 208174 | 224936 15 | 49:59.12 | 3:10.20 | 224937 | 239206 16 | 53:09.32 | 2:46.03 | 239207 | 251659 17 | 55:55.35 | 4:10.10 | 251660 | 270419 18 | 60:05.45 | 4:25.59 | 270420 | 290353
Range status and errors
Selected range
Filename C:\Program Files\Exact Audio Copy\Flac\Barsegh Kanachian - Chorals (Topikyan H., Yerevan Chamber Choir).wav
Peak level 94.4 % Extraction speed 10.1 X Range quality 100.0 % Test CRC DE35049C Copy CRC DE35049C Copy OK
No errors occurred
AccurateRip summary
Track 1 accurately ripped (confidence 1) [5C73687A] (AR v1)Track 2 accurately ripped (confidence 1) [5A12BC5C] (AR v1)Track 3 accurately ripped (confidence 1) [B2BE9D43] (AR v1)Track 4 accurately ripped (confidence 1) [C76DF119] (AR v1)Track 5 accurately ripped (confidence 1) [C3564E44] (AR v1)Track 6 accurately ripped (confidence 1) [E6649AEC] (AR v1)Track 7 accurately ripped (confidence 1) [C436B3E4] (AR v1)Track 8 accurately ripped (confidence 1) [C548E04D] (AR v1)Track 9 accurately ripped (confidence 1) [50B501A7] (AR v1)Track 10 accurately ripped (confidence 1) [D5A4AB9B] (AR v1)Track 11 accurately ripped (confidence 1) [15E7BA60] (AR v1)Track 12 accurately ripped (confidence 1) [A04DF245] (AR v1)Track 13 accurately ripped (confidence 1) [649D4A08] (AR v1)Track 14 accurately ripped (confidence 1) [622CD81F] (AR v1)Track 15 accurately ripped (confidence 1) [E38C9B5C] (AR v1)Track 16 accurately ripped (confidence 1) [1D4A22AB] (AR v1)Track 17 accurately ripped (confidence 1) [AC103628] (AR v1)Track 18 accurately ripped (confidence 1) [79267793] (AR v1)
All tracks accurately ripped
End of status report
==== Log checksum 3D67745D9131E28FD3D286E81B0ACD5ABF575AB0D881149964992FFD45F48E45 ====

.CUE

REM GENRE ClassicalREM DATE 1998REM DISCID F40F1F12REM COMMENT "ExactAudioCopy v1.0b3"PERFORMER "Topikyan H., Yerevan Chamber Choir"TITLE "Barsegh Kanachian - Chorals"FILE "Barsegh Kanachian - Chorals (Topikyan H., Yerevan Chamber Choir).flac" WAVE TRACK 01 AUDIO TITLE "Bam, porotan" PERFORMER "Topikyan H., Yerevan Chamber Choir" INDEX 01 00:00:00 TRACK 02 AUDIO TITLE "Sosin" PERFORMER "Topikyan H., Yerevan Chamber Choir" INDEX 00 01:33:02 INDEX 01 01:35:02 TRACK 03 AUDIO TITLE "Shousho" PERFORMER "Topikyan H., Yerevan Chamber Choir" INDEX 00 05:24:59 INDEX 01 05:26:59 TRACK 04 AUDIO TITLE "Dalilo" PERFORMER "Topikyan H., Yerevan Chamber Choir" INDEX 00 08:52:61 INDEX 01 08:54:61 TRACK 05 AUDIO TITLE "Lousnakn elav" PERFORMER "Topikyan H., Yerevan Chamber Choir" INDEX 00 12:57:37 INDEX 01 12:59:36 TRACK 06 AUDIO TITLE "Hop Giulizar" PERFORMER "Topikyan H., Yerevan Chamber Choir" INDEX 00 14:58:55 INDEX 01 15:00:55 TRACK 07 AUDIO TITLE "Haireni karot" PERFORMER "Topikyan H., Yerevan Chamber Choir" INDEX 00 17:19:74 INDEX 01 17:21:74 TRACK 08 AUDIO TITLE "Maralo" PERFORMER "Topikyan H., Yerevan Chamber Choir" INDEX 00 19:24:00 INDEX 01 19:26:00 TRACK 09 AUDIO TITLE "Garoun ekav" PERFORMER "Topikyan H., Yerevan Chamber Choir" INDEX 00 22:11:65 INDEX 01 22:13:65 TRACK 10 AUDIO TITLE "Oror" PERFORMER "Topikyan H., Yerevan Chamber Choir" INDEX 00 23:08:47 INDEX 01 23:10:47 TRACK 11 AUDIO TITLE "Hoy-nar" PERFORMER "Topikyan H., Yerevan Chamber Choir" INDEX 00 25:58:29 INDEX 01 26:00:29 TRACK 12 AUDIO TITLE "Nanor" PERFORMER "Topikyan H., Yerevan Chamber Choir" INDEX 00 30:24:13 INDEX 01 30:26:13 TRACK 13 AUDIO TITLE "Tsenkele" PERFORMER "Topikyan H., Yerevan Chamber Choir" INDEX 00 43:30:50 INDEX 01 43:32:50 TRACK 14 AUDIO TITLE "Naro djan" PERFORMER "Topikyan H., Yerevan Chamber Choir" INDEX 00 46:13:49 INDEX 01 46:15:49 TRACK 15 AUDIO TITLE "Kamnerg" PERFORMER "Topikyan H., Yerevan Chamber Choir" INDEX 00 49:57:12 INDEX 01 49:59:12 TRACK 16 AUDIO TITLE "Khaghagh gisher" PERFORMER "Topikyan H., Yerevan Chamber Choir" INDEX 00 53:07:32 INDEX 01 53:09:32 TRACK 17 AUDIO TITLE "Khndjuik" PERFORMER "Topikyan H., Yerevan Chamber Choir" INDEX 00 55:53:35 INDEX 01 55:55:35 TRACK 18 AUDIO TITLE "Varderi het" PERFORMER "Topikyan H., Yerevan Chamber Choir" INDEX 00 60:03:45 INDEX 01 60:05:45

Биография:

Барсег Каначян (1888-1967) самый старший из учеников Комитаса. Родился в городе Родосто. В 1896 году семья переехала в Болгарию – в город Варну. Учился игре на скрипке в местной армянской школе, затем - в Бухаресте в училище Жоржа Пуюка. В 1908г. едет в Константинополь, где организует оркестры "Кнар" и "Масис". В 1910 году, воодушевленный концертом Комитаса, он становится певцом в его хоре "Гусан". А когда создается кружок "Искусство гармонизации", состоящий из шестнадцати человек, он становится одним из слушателей этого кружка. Это был именно тот кружок, из которого в последствии вышла пятерка учеников Комитаса. Их занятия продолжаются вплоть до Первой Мировой войны. В конце войны, в Тигранакерте, Каначян сам организовывает армянский хор и выступает с благотворительными концертами в помощь беженцам. По возвращении в Константинополь, он находит учеников Комитаса и вместе с ними организует группу "Пять учеников Комитаса", основной задачей которого становится пропаганда творчества их великого учителя. Они организуют концерты, опубликовывают три сборника "Армянские гусанские песни", собирают хоры и оркестры, занимаются воспитанием подрастающего поколения.
В 1920 году Каначян вместе со своими друзьями уезжает в Париж и учится на курсах Рене Ле Нормана. Затем в течение семи лет продолжает свою деятельность на Кипре в учебном заведении Мелконян. После этого, вернувшись в Бейрут, организует концертные поездки в Дамаск, в Триполи, Латакию, Александрию, Алеппо и др.
Параллельно с педагогической и хормейстерской деятельностью Каначян занимался творчеством. Он автор известных сольных и хоровых песен на слова армянских поэтов. "Орор" на слова Р.Патканяна, "Урени" на слова О.Туманяна, "Цов ачер" на слова Ав.Исаакяна, "Цайгерг" на слова Кучака по сей день занимают достойное место в репертуаре солистов и исполнительских коллективов. К его монументальным произведениям относятся трехактная опера "Абега" ("Священник") на основе пьесы Левона Шанта "Старые боги", а также арии, хоры и оркестровые фрагменты, вдохновленные поэмой М.Зарифяна "Сумасшедший".
Б.Каначян организовал хор «Гусан» в Бейруте и пропагандировал сочинения Комитаса в течение полутора десятка лет. Как композитор он также продолжал комитасовскую линию творчества, основывая свои сочинения на народной песне.
Из-за болезни глаз он был вынужден прекратить свою деятельность в 1950 году. Скончался 21 мая 1967 года.
mp3
[teatrix.ru].t8003.torrent 
Торрент: Зарегистрирован [ 2015-10-14 02:49 ] · A064D886CE95F104B8D9DF9E12F33066A8874FEF

Скачать .torrent

Скачать

13 KB

Статус: проверено
Скачан: 0 раз
Размер: 317 MB
terms.php



Быстрый ответ

Имя:

      
Для отправки сообщений необходимо включить JavaScript
Показать сообщения:    

Текущее время: 03-Дек 01:18

Часовой пояс: UTC + 3


Вы можете начинать темы
Вы можете отвечать на сообщения
Вы не можете редактировать свои сообщения
Вы не можете удалять свои сообщения
Вы не можете голосовать в опросах
Вы не можете прикреплять файлы к сообщениям
Вы можете скачивать файлы