(Classical, sacred) William Byrd, John Taverner - Masses & Motets - Choir of King\'s College, Cambridge, David Willcocks - 2CD - 2010, FLAC (image+.cue) lossless


Статистика раздачи [Обновить пиров]
Размер:  698 MB   |    Зарегистрирован:  1 год 1 месяц   |    Скачан:  0 раз

Полного источника не было: Никогда

 
   
 
 
 

[Цитировать]

William Byrd, John Taverner - Masses & Motets - Choir of King's College, Cambridge, David Willcocks
Жанр: Classical, sacred
Страна-производитель диска: Netherlands
Год издания диска: 2010
Издатель (лейбл): Newton Classics
Номер по каталогу: 8802020
Дата записи: 1959, 1961, 1963
Аудиокодек: FLAC
Тип рипа: image+.cue
Битрейт аудио: lossless
Продолжительность: 122:18
Источник: собственный рип
Наличие сканов в содержимом раздачи: да
Треклист:
William Byrd (1540-1623)
CD1
[1]-[4] Mass for three voices
[5]-[9] Mass for four voices
[10]-[14] Mass for five voices
CD2
[1]-[2] Magnificat & Nunc dimittis from The Great Service
[3] Ave verum corpus
John Taverner (c.1490-1545)
[4] Leroy Kyrie
[5]-[9] Western Wind Mass
[10] Dum transisset Sabbatum
[11] Christe Jesu pastor bone
[12] Mater Christi
Исполнители:
Choir of King's College, Cambridge
David Willcocks

Лог создания рипа: CD1

Exact Audio Copy V1.0 beta 3 from 29. August 2011
EAC extraction logfile from 25. October 2013, 13:34
Choir of King's College, Cambridge, David Willcocks / Byrd, Taverner - Masses and Motets - CD1
Used drive : HL-DT-STDVDRRW GWA-4164B Adapter: 5 ID: 0
Read mode : SecureUtilize accurate stream : YesDefeat audio cache : YesMake use of C2 pointers : No
Read offset correction : 102Overread into Lead-In and Lead-Out : NoFill up missing offset samples with silence : YesDelete leading and trailing silent blocks : NoNull samples used in CRC calculations : YesUsed interface : Native Win32 interface for Win NT & 2000
Used output format : User Defined EncoderSelected bitrate : 896 kBit/sQuality : HighAdd ID3 tag : NoCommand line compressor : C:\Program Files\Exact Audio Copy\FLAC\FLAC.EXEAdditional command line options : -V -8 %source%
TOC of the extracted CD
Track | Start | Length | Start sector | End sector --------------------------------------------------------- 1 | 0:00.33 | 5:57.00 | 33 | 26807 2 | 5:57.33 | 8:23.62 | 26808 | 64594 3 | 14:21.20 | 3:24.63 | 64595 | 79957 4 | 17:46.08 | 3:50.37 | 79958 | 97244 5 | 21:36.45 | 2:33.38 | 97245 | 108757 6 | 24:10.08 | 6:31.37 | 108758 | 138119 7 | 30:41.45 | 8:30.38 | 138120 | 176407 8 | 39:12.08 | 4:32.62 | 176408 | 196869 9 | 43:44.70 | 4:19.63 | 196870 | 216357 10 | 48:04.58 | 1:50.25 | 216358 | 224632 11 | 49:55.08 | 5:31.37 | 224633 | 249494 12 | 55:26.45 | 10:28.13 | 249495 | 296607 13 | 65:54.58 | 4:18.25 | 296608 | 315982 14 | 70:13.08 | 4:18.12 | 315983 | 335344
Range status and errors
Selected range
Filename D:\temp\Music\Byrd, Taverner - Masses and Motets (Choir of King's College, Cambridge, David Willcocks)\Byrd, Taverner - Masses and Motets - CD1.wav
Peak level 99.2 % Extraction speed 3.0 X Range quality 100.0 % Test CRC B1C3CDD0 Copy CRC B1C3CDD0 Copy OK
No errors occurred
AccurateRip summary
Track 1 cannot be verified as accurate (confidence 5) [6452B5F3], AccurateRip returned [074A6685] (AR v2)Track 2 cannot be verified as accurate (confidence 5) [8CB592C7], AccurateRip returned [FD3B7D60] (AR v2)Track 3 cannot be verified as accurate (confidence 5) [B61801DA], AccurateRip returned [F14704FE] (AR v2)Track 4 cannot be verified as accurate (confidence 5) [AFEA755A], AccurateRip returned [DAFC68A2] (AR v2)Track 5 cannot be verified as accurate (confidence 5) [1354EBC9], AccurateRip returned [834DF8FB] (AR v2)Track 6 cannot be verified as accurate (confidence 5) [12857882], AccurateRip returned [897ED641] (AR v2)Track 7 cannot be verified as accurate (confidence 5) [63E2264E], AccurateRip returned [90A57734] (AR v2)Track 8 cannot be verified as accurate (confidence 5) [59D463B7], AccurateRip returned [5851CD58] (AR v2)Track 9 cannot be verified as accurate (confidence 5) [26646370], AccurateRip returned [4CE1D841] (AR v2)Track 10 cannot be verified as accurate (confidence 5) [58ABE855], AccurateRip returned [A358FF10] (AR v2)Track 11 cannot be verified as accurate (confidence 5) [23D4A7D8], AccurateRip returned [803A9C6A] (AR v2)Track 12 cannot be verified as accurate (confidence 5) [02E4DBCF], AccurateRip returned [015B7185] (AR v2)Track 13 cannot be verified as accurate (confidence 5) [CA0292A9], AccurateRip returned [6F2634C6] (AR v2)Track 14 cannot be verified as accurate (confidence 5) [1911C177], AccurateRip returned [4D594AAC] (AR v2)
No tracks could be verified as accurateYou may have a different pressing from the one(s) in the database
End of status report
==== Log checksum DA7D7BD7E20F907EBB6A8C8213F15967D5977031A608F39CB95841B13D8F001C ====

Лог создания рипа: CD2

Exact Audio Copy V1.0 beta 3 from 29. August 2011
EAC extraction logfile from 25. October 2013, 14:32
Choir of King's College, Cambridge, David Willcocks / Byrd, Taverner - Masses and Motets - CD2
Used drive : HL-DT-STDVDRRW GWA-4164B Adapter: 5 ID: 0
Read mode : SecureUtilize accurate stream : YesDefeat audio cache : YesMake use of C2 pointers : No
Read offset correction : 102Overread into Lead-In and Lead-Out : NoFill up missing offset samples with silence : YesDelete leading and trailing silent blocks : NoNull samples used in CRC calculations : YesUsed interface : Native Win32 interface for Win NT & 2000
Used output format : User Defined EncoderSelected bitrate : 896 kBit/sQuality : HighAdd ID3 tag : NoCommand line compressor : C:\Program Files\Exact Audio Copy\FLAC\FLAC.EXEAdditional command line options : -V -8 %source%
TOC of the extracted CD
Track | Start | Length | Start sector | End sector --------------------------------------------------------- 1 | 0:00.33 | 10:36.22 | 33 | 47754 2 | 10:36.55 | 6:08.53 | 47755 | 75407 3 | 16:45.33 | 4:35.00 | 75408 | 96032 4 | 21:20.33 | 3:31.42 | 96033 | 111899 5 | 24:52.00 | 6:42.38 | 111900 | 142087 6 | 31:34.38 | 6:39.22 | 142088 | 172034 7 | 38:13.60 | 4:45.70 | 172035 | 193479 8 | 42:59.55 | 2:36.73 | 193480 | 205252 9 | 45:36.53 | 7:41.67 | 205253 | 239894 10 | 53:18.45 | 7:47.70 | 239895 | 274989 11 | 61:06.40 | 3:11.68 | 274990 | 289382 12 | 64:18.33 | 7:42.00 | 289383 | 324032
Range status and errors
Selected range
Filename D:\temp\Music\Byrd, Taverner - Masses and Motets (Choir of King's College, Cambridge, David Willcocks)\Byrd, Taverner - Masses and Motets - CD2.wav
Peak level 94.9 % Extraction speed 2.9 X Range quality 100.0 % Test CRC DB141F39 Copy CRC DB141F39 Copy OK
No errors occurred
AccurateRip summary
Track 1 cannot be verified as accurate (confidence 3) [86BB1394], AccurateRip returned [2A4D26AD] (AR v2)Track 2 cannot be verified as accurate (confidence 3) [37C0D5E5], AccurateRip returned [5746107E] (AR v2)Track 3 cannot be verified as accurate (confidence 3) [C45BD8B1], AccurateRip returned [30B097C1] (AR v2)Track 4 cannot be verified as accurate (confidence 3) [397AB086], AccurateRip returned [8635280E] (AR v2)Track 5 cannot be verified as accurate (confidence 3) [670DDFF5], AccurateRip returned [E6389DDF] (AR v2)Track 6 cannot be verified as accurate (confidence 3) [ADF6CF49], AccurateRip returned [812194A7] (AR v2)Track 7 cannot be verified as accurate (confidence 3) [7EC4667F], AccurateRip returned [3AADAFDF] (AR v2)Track 8 cannot be verified as accurate (confidence 3) [E99CA891], AccurateRip returned [28875011] (AR v2)Track 9 cannot be verified as accurate (confidence 3) [C3190E3D], AccurateRip returned [A1B99A07] (AR v2)Track 10 cannot be verified as accurate (confidence 3) [3AD582EE], AccurateRip returned [3DF63677] (AR v2)Track 11 cannot be verified as accurate (confidence 3) [9FDE1C56], AccurateRip returned [DA988BB9] (AR v2)Track 12 cannot be verified as accurate (confidence 3) [B9A3880D], AccurateRip returned [281DC719] (AR v2)
No tracks could be verified as accurateYou may have a different pressing from the one(s) in the database
End of status report
==== Log checksum 63954D197D1374046D37A5FB70509A992CACFC856C916FE7484D938A1FFCDA40 ====
[teatrix.ru].t8004.torrent 
Торрент: Зарегистрирован [ 2015-10-14 02:49 ] · 0206194F5AAD4CA69BE60B4224CE72BC227B4921

Скачать .torrent

Скачать

30 KB

Статус: проверено
Скачан: 0 раз
Размер: 698 MB
terms.php



Быстрый ответ

Имя:

      
Для отправки сообщений необходимо включить JavaScript
Показать сообщения:    

Текущее время: 07-Дек 13:40

Часовой пояс: UTC + 3


Вы можете начинать темы
Вы можете отвечать на сообщения
Вы не можете редактировать свои сообщения
Вы не можете удалять свои сообщения
Вы не можете голосовать в опросах
Вы не можете прикреплять файлы к сообщениям
Вы можете скачивать файлы