(Classical) Johann Sebastian Bach - Complete Sacred Cantatas BWV 1-200 Vols.1-55 (55) [Bach Collegium Japan • Masaaki Suzuki] - 1995-2013, FLAC (image+.cue) lossless


Статистика раздачи [Обновить пиров]
Размер:  20.05 GB   |    Зарегистрирован:  1 год 1 месяц   |    Скачан:  0 раз

Полного источника не было: Никогда

 
   
 
 
 

[Цитировать]

Johann Sebastian Bach - Complete Sacred Cantatas
Bach Collegium Japan • Masaaki Suzuki
-

Box 1 Vols.01-10: Erschallet, ihr Lieder!

Жанр: Classical
Страна-производитель диска: Austria
Год издания диска: 2009
Издатель (лейбл): BIS
Номер по каталогу: BIS-CD-9024/26
Дата записи: 1995-1999
Аудиокодек: FLAC
Тип рипа: image+.cue
Битрейт аудио: lossless
Источник: собственный рип
Наличие сканов в содержимом раздачи: да

Vol.1: BWV 4 • 150 • 196 (45'12")

'Christ lag in Todesbanden' BWV 4
01. I. Sinfonia
02. II. Christ lag in Todesbanden
03. III. Den Tod niemand zwingen kunnt
04. IV. Jesu Christus, Gottes Sohn
05. V. Es war ein wunderlicher Krieg
06. VI. Hier ist das rechte Osterlamm
07. VII. So feiern wir das hohe Fest
08. VIII. Wir essen und leben wohl
'Nach dir, Herr, verlanget mich' BWV 150
09. I. Sinfonia
10. II. Nach dir, Herr, verlanget mich
11. III. Doch bin und bleibe ich vergnugt
12. IV. Leite mich in deiner Wahrheit
13. V. Zedern mussen von den Winden
14. VI. Meine Augen sehen stets zu dem
15. VII. Meine Tage in dem Leide
'Der Herr denket an uns' BWV 196
16. I. Sinfonia
17. II. Der Herr denket an uns
18. III. Er segnet, die den Herrn furchten
19. IV. Der Herr segne euch
20. V. Ihr seid die Gesegneten des Herrn
Yumiko Kurisu, soprano
Akira Tachikawa, counter-tenor
Koki Katano, tenor
Peter Kooij, bass

Vol.2: BWV 71 • 106 • 131 (1:02'35")

'Gott ist mein Konig' BWV 71
01. I. Gott ist mein Konig
02. II. Ich bin nun achtzig Jahr
03. III. Dein Alter sei wie deine Jugend
04. IV. Tag und Nacht ist dein
05. V. Durch machtige Kraft
06. VI. Du wollest dem Feinde nicht geben
07. VII. Das neue Regiment
'Aus der Tiefe rufe ich, Herr, zu dir' BWV 131
08. I. Sinfonia. Aus der Tiefe
09. II. Erbarm dich mein
10. III. Ich harre des Herrn
11. IV. Und weil ich denn in mei
12. V. Israel hoffe auf den Herrn
'Gottes Zeit ist die allerbeste Zeit' BWV 106
13. I. Sonatina
14. IIa. Gottes Zeit ist die alle
15. IIb. Ach Herr, lehre uns bede
16. IIc. Bestelle dein Haud; denn
17. IId. Es ist der alte Bund
18. IIIa. In deine Hande befehl
19. IIIb. Heut wirst du mit mir
20. IV. Glorie, Lob Ehr und Herrl
Midori Suzuki, soprano
Aki Yanagisawa, soprano
Yoshikazu Mera, counter-tenor
Gerd Turk, tenor/bass
Peter Kooy, bass

Vol.3: BWV 12 • 54 • 162 • 182 (1:19'09")

'Weinen, Klagen, Sorgen, Zagen' BWV 12
01. I. Sinfonia
02. II. Weinen, Klagen, Sorgen, Zagen
03. III. Wir mussen durch viel Trubsal
04. IV. Kreuz und Krone sind verbunden
05. V. Ich folge Cristo nach
06. VI. Sie getreu
07. VII. Was Gott tut, das ist wohlgetan
'Widerstehe doch der Sunde' BWV 54
08. I. Widerstehe doch der Sunde
09. II. Die Art verruchter Sunden
10. III. Wer Sunde tut, der ist vom Teufel
'Ach, ich sehe, itzt, da ich zur Hochzeit gehe' BWV 162
11. I. Ach, ich sehe
12. II. O grosses Hochz
13. III. Jesu, Brunnque
14. IV. Mein Jesu, lass
15. V. In meinem Gott
16. VI. Ach, ich habe
'Himmelskonig, sei willkommen' BWV 182
17. I. Sonata
18. II. Himmelskonig, sei willkommen
19. III. Siehe, siehe, ich komme, im
20. IV. Starkes Lieben
21. V. Leget euch dem Heiland unter
22. VI. Jesu, lass durch Wohl und Weh
23. VII. Jesu, deine Passion
24. VIII. So lasset uns gehen in Salem
Yumiko Kurisu, soprano
Yoshikazu Mera, counter-tenor
Makoto Sakurada, tenor
Peter Kooy, bass

Vol.4: BWV 163 • 165 • 185 • 199 (1:06'14")

'Mein Herze schwimmt im Blut' BWV 199
01. I. Mein Herze schwimmt im Blut
02. II. Stumme Seufzer, stille Klagen
03. III. Doch Gott muss mir genadig sein
04. IV. Tief gebuckt und voller Reue
05. V. Auf diese Schmerzensreu
06. VI. Ich, dein betrubtes Kind
07. VII. Ich lege mich in diese Wunden
08. VIII. Wie freudig ist mein Herz
'O heiliges Geist- und Wasserbad' BWV 165
09. I. O heiliges Geist- und Wasserbad
10. II. Die sundige Geburt
11. III. Jesu, der aus grosser Liebe
12. IV. Ich habe ja, mein Seelenbraut
13. V. Jesu, meines Todes Tod
14. VI. Sein Wort, sein Tauf
'Barmherziges Herze der ewigen Liebe' BWV 185
15. I. Barmherziges Herze der
16. II. Ihr Herzen, die ihr euch
17. III. Sei bemuht in dieser Zeit
18. IV. Die Eigenliebe schmeichel
19. V. Das ist der Christen Kunst
20. VI. Ich ruf zu dir, Herr Jesu
'Nur jedem das Seine' BWV 163
21. I. Nur jedem das Seine
22. II. Du bist, mein Gott, der Geber aller Gaben
23. III. Lass mein Herz die Munze sein
24. IV. Ich wollte dir
25. V. Nimm mich mir und gib mich dir
26. VI. Fuhr auch mein Herz und Sinn
Midori Suzuki, soprano
Aki Yanagisawa, soprano
Akira Tachikawa, alto
Makoto Sakurada, tenor
Stephan Schreckenberger, bass

Vol.5: BWV 18 • 143 • 152 • 155 • 161 (1:18'17")

'Gleichwie der Regen und Schnee vom Himmel fallt' BWV 18
01. I. Sinfonia
02. II. Gleichwie der
03. III. Mein Gott
04. IV. Mein Seelensch
05. V. Ich bitt
'Tritt auf die Glaubensbahn' BWV 152
06. I. Sinfonia
07. II. Tritt auf die Glaubensbahn
08. III. Der Heiland ist gesetzt
09. IV. Stein, der ueber alle Schatze
10. V. Es aergre sich die kluge Welt
11. VI. Wie soll ich dich, Liebster der
'Mein Gott, wie lange, ach lange' BWV 155
12. I. Mein Gott, wie lange, ach lange
13. II. Man musst glauben, man musst
14. III. So sei, o Seele, sei zufrieden
15. IV. Wirf, mein Herze, wirf dich noch
16. V. Ob sich anliess, als wollt
'Komm, du Susse Todesstunde' BWV 161
17. I. Komm, du Susse Todesstunde
18. II. Welt, deine Lust ist Last
19. III. Mein verlangen ist, den Heiland
20. IV. Den Schluss ist schon gemacht
21. V. Wenn es meine Gottes Wille
22. VI. Der Leiib zwar in den Erden
'Lob den Herrn, meine Seele' BVW 143
23. I. Lob den Herrn, meine Seele
24. II. Den Friedefurst, Herr Jesu Christ
25. III. Wohl dem, des Hilfe der Gott
26. IV. Tausendfaches Ungluck, Schrecken
27. V. Der Herr ist Konig ewiglich
28. VI. Jesu, Retter deiner Herde
29. VII. Gedenk, Herr, jetzund an dein Amt
Midori Suzuki, soprano
Ingrid Schmithusen, soprano
Yoshikazu Mera, counter-tenor
Makoto Sakurada, tenor
Peter Kooij, bass

Vol.6: BWV 21 • 31 (1:07'59")

'Der Himmel lacht, die Erde jubilieret' BWV 31
01. I. Sonata
02. II. Der Himmel lacht
03. III. Erwunschter Tag!
04. IV. Furst des Lebens
05. V. So stehe dann, du gotterg
06. VI. Adam muss in uns verwesen
07. VII. Weil dann das Haupt
08. VIII. Letzte Stunde, brich
09. IX. So fahr ich hin zu Jesu
'Ich hatte viel Bekummernis' BWV 21
10. I. Sinfonia
11. II. Ich hatte viel Bekummernis
12. III. Seufzer, Tranen, Kummer, Not
13. IV. Wie hast du dich, mein Gott
14. V. Bache von gesalznen Zahren
15. VI. Was betrubst du dich, meine Seele
16. VII. Ach Jesu, meine Ruh [1:18]
17. VIII. Komm, mein Jesu, und erquicke
18. IX. Sei nun wieder zufrieden
19. X. Erfreue dich, Seele
20. XI. Das Lamm, das erwurget ist
'Ich hatte viel Bekummernis' BWV 21 Alternative Movements
21. III. Seufzer, Tranen, Kummer, Not
22. VII. Ach Jesu, meine Ruh
23. VIII. Komm, mein Jesu, und erquicke
Monika Frimmer, soprano
Gerd Turk, tenor
Peter Kooij, bass

Vol.7: BWV 61 • 63 • 132 • 172 (1:17'30")

'Christen, atzet diesen Tag' BWV 63
01. I. Christen, atzet diesen Tag
02. II. O selger Tag! o ungemeines Heute
03. III. Gott, du hast es so wohl gefuget
04. IV. So kehret sich nun heut
05. V. Ruft und fleht den Himmel an
06. VI. Verdoppelt euch demnach
07. VII. Hochster, schau in Gnaden an
'Nun komm, der Heiden Heiland' BWV 61
08. I. Overture Nun komm, der Heiden Heiland
09. II. Der Heiland ist gekommen
10. III. Komm, Jesu, komm zu deiner Kirche
11. IV. Siehe, ich stehe vor der Tur
12. V. Offne dich, mein ganzes Herze
13. VI. Amen, amen
'Bereitet die Wege, bereitet die Bahn' BWV 132
14. I. Bereitet die Wege
15. II. Willst du dich Gottes Kind
16. III. Wer bist du?
17. IV. Ich will, mein Gott
18. V. Christi Glieder
19. VI. Ertot uns durch dein Gute
'Erschallet, ihr Lieder' BWV 172
20. I. Erschallet, ihr Lieder
21. II. Wer mich liebet
22. III. Heiligste Dreieinigkeit
23. IV. O Seelenparadies
24. V. Komm, lass mich nicht
25. VI. Von Gott kommt mir ein Freudenschein
Ingrid Schmithusen, soprano
Yoshikazu Mera, counter-tenor
Makoto Sakurada, tenor
Peter Kooij, bass

Vol.8: BWV 22 • 23 • 75 (1:04'04")

'Jesus nahm zu sich die Zwolfe' BWV 22
01. I. Jesus nahm zu sich die Zwolfe
02. II. Mein Jesu, ziehe mich nach dir
03. III. Mein Jesu, ziehe mich, so werd
04. IV. Mein alles in allem
05. V. Ertot uns durch dein Gute
'Du wahrer Gott und Davids Sohn' BWV 23
06. I. Du wahrer Gott und Davids Sohn
07. II. Ach! gehe nicht voruber
08. III. Aller Augen warten, Herr
09. IV. Chorale - Christe, du Lamm Gottes
'Die Elenden sollen essen' BWV 75
10. I. Die Elenden sollen essen
11. II. Was hilft des Purpurs Majestat
12. III. Mein Jusus soll mein alles sein
13. IV. Gott sturzet und erhohet
14. V. Ich nehme mein Leiden mit Freuden
15. VI. Indes schenkt Gott ein gut Gewissen
16. VII. Was Gott tut, das ist wohlgetan
17. VIII. Sinfonia
18. IX. Nur eines krankt ein christliches Gemute
19. X. Jesus macht mich geistlich reich
20. XI. Wer nur in Jesu bleibt
21. XII. Mein Herze glaubt und liebt
22. XIII. O Armut, der kein Reichtum gleicht!
23. XIV. Was Gott tut, das ist wohlgetan
Midori Suzuki, soprano
Yoshikazu Mera, counter-tenor
Gerd Turk, tenor
Peter Kooij, bass

Vol.9: BWV 24 • 76 • 167 (1:07'16")

'Die Himmel erzahlen die Ehre Gottes' BWV 76
01. I. Die Himmel erzahlen
02. II. So la.t sich Gott
03. III. Hort, ihr Volker
04. IV. Wer aber hort
05. V. Fahr hin, abgottische Zunft!
06. VI. Du hast uns, Herr
07. VII. Es woll uns Gott gnadig sein
08. VIII. Sinfonia
09. IX. Gott, segne noch
10. X. Hasse nur, hasse mich recht
11. XI. Ich fuhle schon im Geist
12. XII. Liebt, ihr Christen
13. XIII. So soll die Christenheit
14. XIV. Es danke, Gott
'Ein ungefarbt Gemute' BWV 24
15. I. Ein ungefarbt Gemute
16. II. Die Redlichkeit
17. III. Alles nun, das ihr wollet
18. IV. Die Heuchelei ist eine Brut
19. V. Treu und Wahrheit sei der Grund
20. VI. O, Gott, du frommer Gott
'Ihr Menschen, ruhmet Gottes Liebe' BWV 167
21. I. Ihr Menschen, ruhmet Gottes
22. II. Gelobet sei der Herr Gott
23. III. Gottes Wort
24. IV. Des Weibes Samen kam
25. V. Sei Lob und Preis mit Ehren
Midori Suzuki, soprano
Robin Blaze, counter-tenor
Gerd Turk, tenor
Chiyuki Urano, bass

Vol.10: BWV 105 • 179 • 186 (1:03'10")

'Herr, gehe nich ins Gericht' BWV 105
01. I. Herr, gehe nich ins Gericht
02. II. Mein Gott, verwirf mich nicht
03. III. Wie zittern und wanken
04. IV. Wohl aber dem
05. V. Kann ich nur Jesum mir zum Freunde
06. VI. Nun, ich weiss, du wirst mir stillen
'Siehe zu, dass deine Gottesfurcht nicht Heuchelei sei' BWV 179
07. I. Siehe zu
08. II. Das heu...
09. III. Falsch...
10. IV. Wer so ...
11. V. Liebster...
12. VI. Ich arm...
'Argre dich, o Seele, nicht' BVW 186
13. I. Argre dich, o Seele, nicht
14. II. Die Knechtsgestalt, die Not
15. III. Bist du, der mir helfen soll
16. IV. Ach, dass ein Christo so sehr
17. V. Mein Heiland lasst sich merken
18. VI. Ob sichs anliess, als wollt er nicht
19. VII. Es ist die Welt die grosse Wustenei
20. VIII. Die Armen will der Herr umarmen
21. IX. Nun mag die Welt mit ihrer Lust
22. X. Lass, Seele, kein Leiden
23. XI. Die Hoffnung wart' der rechten Zeit
Miah Persson, soprano
Robin Blaze, counter-tenor
Makoto Sakurada, tenor
Peter Kooij, bass

-

Лог создания рипа - Vol.1

Exact Audio Copy V1.0 beta 1 from 15. November 2010
EAC extraction logfile from 14. April 2012, 13:18
Johann Sebastian Bach / Complete Cantatas (1.1)
Used drive : Optiarc DVD RW AD-7203A Adapter: 4 ID: 1
Read mode : SecureUtilize accurate stream : YesDefeat audio cache : YesMake use of C2 pointers : No
Read offset correction : 48Overread into Lead-In and Lead-Out : NoFill up missing offset samples with silence : YesDelete leading and trailing silent blocks : NoNull samples used in CRC calculations : YesUsed interface : Native Win32 interface for Win NT & 2000
Used output format : User Defined EncoderSelected bitrate : 128 kBit/sQuality : HighAdd ID3 tag : NoCommand line compressor : C:\Program Files\FLAC\flac.exeAdditional command line options : -T "COMMENT=Ripped by GFox" -8 -V %s
TOC of the extracted CD
Track | Start | Length | Start sector | End sector --------------------------------------------------------- 1 | 0:00.00 | 1:13.62 | 0 | 5536 2 | 1:13.62 | 4:03.13 | 5537 | 23774 3 | 5:17.00 | 3:41.37 | 23775 | 40386 4 | 8:58.37 | 1:56.25 | 40387 | 49111 5 | 10:54.62 | 2:28.00 | 49112 | 60211 6 | 13:22.62 | 2:38.00 | 60212 | 72061 7 | 16:00.62 | 1:29.00 | 72062 | 78736 8 | 17:29.62 | 1:24.13 | 78737 | 85049 9 | 18:54.00 | 1:40.25 | 85050 | 92574 10 | 20:34.25 | 3:28.50 | 92575 | 108224 11 | 24:03.00 | 1:27.62 | 108225 | 114811 12 | 25:30.62 | 1:47.13 | 114812 | 122849 13 | 27:18.00 | 1:11.62 | 122850 | 128236 14 | 28:29.62 | 2:03.25 | 128237 | 137486 15 | 30:33.12 | 3:05.63 | 137487 | 151424 16 | 33:39.00 | 1:47.00 | 151425 | 159449 17 | 35:26.00 | 2:11.00 | 159450 | 169274 18 | 37:37.00 | 2:30.37 | 169275 | 180561 19 | 40:07.37 | 1:52.25 | 180562 | 188986 20 | 41:59.62 | 3:12.13 | 188987 | 203399
Range status and errors
Selected range
Filename D:\EAC\Johann Sebastian Bach - Complete Cantatas (1.1).wav
Peak level 82.2 % Extraction speed 0.2 X Range quality 99.9 % Test CRC 3F2EBB8F Copy CRC 3F2EBB8F Copy OK
No errors occurred
AccurateRip summary
Track 1 accurately ripped (confidence 3) [0C304359]Track 2 accurately ripped (confidence 3) [41790F6B]Track 3 accurately ripped (confidence 3) [E699629C]Track 4 accurately ripped (confidence 3) [4F18E2E2]Track 5 accurately ripped (confidence 3) [E5FF2E77]Track 6 accurately ripped (confidence 3) [D07B66B1]Track 7 accurately ripped (confidence 3) [3CD4D080]Track 8 accurately ripped (confidence 3) [EA54E009]Track 9 accurately ripped (confidence 3) [24E8CAFF]Track 10 accurately ripped (confidence 3) [91B1CEA7]Track 11 accurately ripped (confidence 3) [8B6993DF]Track 12 accurately ripped (confidence 3) [97AF012F]Track 13 accurately ripped (confidence 3) [815F8E5D]Track 14 accurately ripped (confidence 3) [BEF3FEC1]Track 15 accurately ripped (confidence 3) [BC61BB9C]Track 16 accurately ripped (confidence 3) [9013BB67]Track 17 accurately ripped (confidence 3) [327A240B]Track 18 accurately ripped (confidence 3) [7447650A]Track 19 accurately ripped (confidence 3) [E6FE6E1D]Track 20 accurately ripped (confidence 3) [753EDFE3]
All tracks accurately ripped
End of status report
==== Log checksum 54EC6FEC8E2533D774EB9251C792A55736E8B4AC957DE9BF8D8B547C4E9E6777 ====

Лог создания рипа - Vol.2

Exact Audio Copy V1.0 beta 1 from 15. November 2010
EAC extraction logfile from 14. April 2012, 12:52
Johann Sebastian Bach / Complete Cantatas (1.2)
Used drive : Optiarc DVD RW AD-7203A Adapter: 4 ID: 1
Read mode : SecureUtilize accurate stream : YesDefeat audio cache : YesMake use of C2 pointers : No
Read offset correction : 48Overread into Lead-In and Lead-Out : NoFill up missing offset samples with silence : YesDelete leading and trailing silent blocks : NoNull samples used in CRC calculations : YesUsed interface : Native Win32 interface for Win NT & 2000
Used output format : User Defined EncoderSelected bitrate : 128 kBit/sQuality : HighAdd ID3 tag : NoCommand line compressor : C:\Program Files\FLAC\flac.exeAdditional command line options : -T "COMMENT=Ripped by GFox" -8 -V %s
TOC of the extracted CD
Track | Start | Length | Start sector | End sector --------------------------------------------------------- 1 | 0:00.00 | 1:59.00 | 0 | 8924 2 | 1:59.00 | 3:58.00 | 8925 | 26774 3 | 5:57.00 | 2:07.00 | 26775 | 36299 4 | 8:04.00 | 3:06.37 | 36300 | 50286 5 | 11:10.37 | 1:18.38 | 50287 | 56174 6 | 12:29.00 | 3:25.00 | 56175 | 71549 7 | 15:54.00 | 3:48.00 | 71550 | 88649 8 | 19:42.00 | 4:44.37 | 88650 | 109986 9 | 24:26.37 | 4:23.38 | 109987 | 129749 10 | 28:50.00 | 3:12.00 | 129750 | 144149 11 | 32:02.00 | 5:12.00 | 144150 | 167549 12 | 37:14.00 | 4:13.00 | 167550 | 186524 13 | 41:27.00 | 3:09.00 | 186525 | 200699 14 | 44:36.00 | 2:01.00 | 200700 | 209774 15 | 46:37.00 | 2:13.42 | 209775 | 219791 16 | 48:50.42 | 1:06.73 | 219792 | 224814 17 | 49:57.40 | 3:27.35 | 224815 | 240374 18 | 53:25.00 | 2:21.37 | 240375 | 250986 19 | 55:46.37 | 3:34.38 | 250987 | 267074 20 | 59:21.00 | 3:14.00 | 267075 | 281624
Range status and errors
Selected range
Filename D:\EAC\Johann Sebastian Bach - Complete Cantatas (1.2).wav
Peak level 97.2 % Extraction speed 0.1 X Range quality 99.9 % Test CRC D268F25E Copy CRC D268F25E Copy OK
No errors occurred
AccurateRip summary
Track 1 accurately ripped (confidence 5) [F33C9353]Track 2 accurately ripped (confidence 5) [C5C736B8]Track 3 accurately ripped (confidence 5) [DD066A97]Track 4 accurately ripped (confidence 5) [72E4ABAB]Track 5 accurately ripped (confidence 5) [497E9D3C]Track 6 accurately ripped (confidence 5) [F51DA13F]Track 7 accurately ripped (confidence 5) [281614E1]Track 8 accurately ripped (confidence 5) [FF799BCD]Track 9 accurately ripped (confidence 5) [133E4C9C]Track 10 accurately ripped (confidence 5) [E00DA5A6]Track 11 accurately ripped (confidence 5) [FA463EDE]Track 12 accurately ripped (confidence 5) [C625D183]Track 13 accurately ripped (confidence 5) [C56059E6]Track 14 accurately ripped (confidence 5) [0DAF4142]Track 15 accurately ripped (confidence 5) [E0670D32]Track 16 accurately ripped (confidence 5) [61B4ED2E]Track 17 accurately ripped (confidence 5) [313F95A7]Track 18 accurately ripped (confidence 5) [6960F6DA]Track 19 accurately ripped (confidence 5) [DFBA4A67]Track 20 accurately ripped (confidence 5) [16272305]
All tracks accurately ripped
End of status report
==== Log checksum 61B5497CE331347E62949C586813ACA0C9D202789BEAC4A4B2788AEC7BEF55C3 ====

Лог создания рипа - Vol.3

Exact Audio Copy V1.0 beta 1 from 15. November 2010
EAC extraction logfile from 14. April 2012, 16:27
Johann Sebastian Bach / Complete Cantatas (1.3)
Used drive : Optiarc DVD RW AD-7203A Adapter: 4 ID: 1
Read mode : SecureUtilize accurate stream : YesDefeat audio cache : YesMake use of C2 pointers : No
Read offset correction : 48Overread into Lead-In and Lead-Out : NoFill up missing offset samples with silence : YesDelete leading and trailing silent blocks : NoNull samples used in CRC calculations : YesUsed interface : Native Win32 interface for Win NT & 2000
Used output format : User Defined EncoderSelected bitrate : 128 kBit/sQuality : HighAdd ID3 tag : NoCommand line compressor : C:\Program Files\FLAC\flac.exeAdditional command line options : -T "COMMENT=Ripped by GFox" -8 -V %s
TOC of the extracted CD
Track | Start | Length | Start sector | End sector --------------------------------------------------------- 1 | 0:00.00 | 2:34.00 | 0 | 11549 2 | 2:34.00 | 6:57.00 | 11550 | 42824 3 | 9:31.00 | 0:47.00 | 42825 | 46349 4 | 10:18.00 | 6:04.00 | 46350 | 73649 5 | 16:22.00 | 2:19.00 | 73650 | 84074 6 | 18:41.00 | 3:59.00 | 84075 | 101999 7 | 22:40.00 | 1:09.00 | 102000 | 107174 8 | 23:49.00 | 6:06.00 | 107175 | 134624 9 | 29:55.00 | 1:23.25 | 134625 | 140874 10 | 31:18.25 | 3:16.50 | 140875 | 155624 11 | 34:35.00 | 3:43.00 | 155625 | 172349 12 | 38:18.00 | 1:45.00 | 172350 | 180224 13 | 40:03.00 | 3:38.00 | 180225 | 196574 14 | 43:41.00 | 1:42.00 | 196575 | 204224 15 | 45:23.00 | 3:51.00 | 204225 | 221549 16 | 49:14.00 | 1:16.00 | 221550 | 227249 17 | 50:30.00 | 1:56.00 | 227250 | 235949 18 | 52:26.00 | 3:24.37 | 235950 | 251286 19 | 55:50.37 | 0:36.13 | 251287 | 253999 20 | 56:26.50 | 2:36.25 | 254000 | 265724 21 | 59:03.00 | 8:58.37 | 265725 | 306111 22 | 68:01.37 | 3:56.38 | 306112 | 323849 23 | 71:58.00 | 3:10.00 | 323850 | 338099 24 | 75:08.00 | 4:01.00 | 338100 | 356174
Range status and errors
Selected range
Filename D:\EAC\Johann Sebastian Bach - Complete Cantatas (1.3).wav
Peak level 88.8 % Extraction speed 0.1 X Range quality 100.0 % Test CRC D42AAABF Copy CRC D42AAABF Copy OK
No errors occurred
AccurateRip summary
Track 1 accurately ripped (confidence 2) [27A025AE]Track 2 accurately ripped (confidence 2) [68AC85FE]Track 3 accurately ripped (confidence 2) [6EBE8AE5]Track 4 accurately ripped (confidence 2) [52452A7A]Track 5 accurately ripped (confidence 2) [1DF2D67F]Track 6 accurately ripped (confidence 2) [F5448FDC]Track 7 accurately ripped (confidence 2) [6ABB2FCA]Track 8 accurately ripped (confidence 2) [2A7C073A]Track 9 accurately ripped (confidence 2) [26D67AEE]Track 10 accurately ripped (confidence 2) [3F35D870]Track 11 accurately ripped (confidence 2) [E603A9B2]Track 12 accurately ripped (confidence 2) [74E6232D]Track 13 accurately ripped (confidence 2) [6C9EDE3C]Track 14 accurately ripped (confidence 2) [2334075D]Track 15 accurately ripped (confidence 2) [3B24C020]Track 16 accurately ripped (confidence 2) [80A818EB]Track 17 accurately ripped (confidence 2) [F7BF82EB]Track 18 accurately ripped (confidence 2) [B4AA09D8]Track 19 accurately ripped (confidence 2) [AC697626]Track 20 accurately ripped (confidence 2) [4374313E]Track 21 accurately ripped (confidence 2) [344AB0F0]Track 22 accurately ripped (confidence 2) [AB4FB717]Track 23 accurately ripped (confidence 2) [69691F1F]Track 24 accurately ripped (confidence 2) [7908434F]
All tracks accurately ripped
End of status report
==== Log checksum 95BE7FB096810B55105C8BD11E62DCE3FF976CA7D4CC8B4BC9E99D32680DDC23 ====

Лог создания рипа - Vol.4

Exact Audio Copy V1.0 beta 1 from 15. November 2010
EAC extraction logfile from 14. April 2012, 17:25
Johann Sebastian Bach / Complete Cantatas (1.4)
Used drive : Optiarc DVD RW AD-7203A Adapter: 4 ID: 1
Read mode : SecureUtilize accurate stream : YesDefeat audio cache : YesMake use of C2 pointers : No
Read offset correction : 48Overread into Lead-In and Lead-Out : NoFill up missing offset samples with silence : YesDelete leading and trailing silent blocks : NoNull samples used in CRC calculations : YesUsed interface : Native Win32 interface for Win NT & 2000
Used output format : User Defined EncoderSelected bitrate : 128 kBit/sQuality : HighAdd ID3 tag : NoCommand line compressor : C:\Program Files\FLAC\flac.exeAdditional command line options : -T "COMMENT=Ripped by GFox" -8 -V %s
TOC of the extracted CD
Track | Start | Length | Start sector | End sector --------------------------------------------------------- 1 | 0:00.00 | 2:07.15 | 0 | 9539 2 | 2:07.15 | 8:40.30 | 9540 | 48569 3 | 10:47.45 | 1:07.19 | 48570 | 53613 4 | 11:54.64 | 7:30.63 | 53614 | 87426 5 | 19:25.52 | 0:17.05 | 87427 | 88706 6 | 19:42.57 | 1:36.18 | 88707 | 95924 7 | 21:19.00 | 0:43.30 | 95925 | 99179 8 | 22:02.30 | 2:27.45 | 99180 | 110249 9 | 24:30.00 | 3:03.37 | 110250 | 124011 10 | 27:33.37 | 1:16.43 | 124012 | 129754 11 | 28:50.05 | 2:27.60 | 129755 | 140839 12 | 31:17.65 | 2:30.10 | 140840 | 152099 13 | 33:48.00 | 2:23.27 | 152100 | 162851 14 | 36:11.27 | 0:50.48 | 162852 | 166649 15 | 37:02.00 | 3:21.65 | 166650 | 181789 16 | 40:23.65 | 2:07.22 | 181790 | 191336 17 | 42:31.12 | 4:31.70 | 191337 | 211731 18 | 47:03.07 | 0:59.15 | 211732 | 216171 19 | 48:02.22 | 2:01.20 | 216172 | 225266 20 | 50:03.42 | 1:26.33 | 225267 | 231749 21 | 51:30.00 | 3:36.05 | 231750 | 247954 22 | 55:06.05 | 1:28.70 | 247955 | 254624 23 | 56:35.00 | 3:08.50 | 254625 | 268774 24 | 59:43.50 | 2:27.30 | 268775 | 279829 25 | 62:11.05 | 2:51.17 | 279830 | 292671 26 | 65:02.22 | 1:11.53 | 292672 | 298049
Range status and errors
Selected range
Filename D:\EAC\Johann Sebastian Bach - Complete Cantatas (1.4).wav
Peak level 100.0 % Extraction speed 0.0 X Range quality 100.0 % Test CRC F2C72ACB Copy CRC F2C72ACB Copy OK
No errors occurred
AccurateRip summary
Track 1 cannot be verified as accurate (confidence 10) [4835FC0D], AccurateRip returned [B8ED01D4]Track 2 cannot be verified as accurate (confidence 10) [E59049FD], AccurateRip returned [8DBBE3D6]Track 3 cannot be verified as accurate (confidence 10) [C1F212E7], AccurateRip returned [C801EDFE]Track 4 cannot be verified as accurate (confidence 10) [5013131D], AccurateRip returned [98E2EA8E]Track 5 cannot be verified as accurate (confidence 10) [70FD7B7C], AccurateRip returned [DA65DB2B]Track 6 cannot be verified as accurate (confidence 10) [001F12E6], AccurateRip returned [7755F2C7]Track 7 cannot be verified as accurate (confidence 10) [F52F8CD7], AccurateRip returned [C02569E3]Track 8 cannot be verified as accurate (confidence 10) [55F7ED30], AccurateRip returned [34992BD6]Track 9 cannot be verified as accurate (confidence 10) [69C6DD58], AccurateRip returned [457A0E84]Track 10 cannot be verified as accurate (confidence 10) [53C92A40], AccurateRip returned [0E36801D]Track 11 cannot be verified as accurate (confidence 10) [9E250D31], AccurateRip returned [0DAFFE14]Track 12 cannot be verified as accurate (confidence 10) [D92ACAAD], AccurateRip returned [CFA1B444]Track 13 cannot be verified as accurate (confidence 10) [0D9D6CFB], AccurateRip returned [D7FC3591]Track 14 cannot be verified as accurate (confidence 10) [956E71CA], AccurateRip returned [0536B253]Track 15 cannot be verified as accurate (confidence 10) [44AA0E60], AccurateRip returned [46B339F9]Track 16 cannot be verified as accurate (confidence 10) [58A9C7B7], AccurateRip returned [24F26CBC]Track 17 cannot be verified as accurate (confidence 10) [877DC5EA], AccurateRip returned [621DB6C3]Track 18 cannot be verified as accurate (confidence 10) [E21205F5], AccurateRip returned [CC564677]Track 19 cannot be verified as accurate (confidence 10) [D2DAD9D2], AccurateRip returned [8DF08A46]Track 20 cannot be verified as accurate (confidence 10) [1B9A9020], AccurateRip returned [D21EE4C4]Track 21 cannot be verified as accurate (confidence 10) [8A0395BA], AccurateRip returned [D0666A66]Track 22 cannot be verified as accurate (confidence 10) [12DA0067], AccurateRip returned [4EC98EE2]Track 23 cannot be verified as accurate (confidence 10) [084AFFE0], AccurateRip returned [9951E311]Track 24 cannot be verified as accurate (confidence 10) [6500ADFD], AccurateRip returned [CA99D39F]Track 25 cannot be verified as accurate (confidence 10) [814B30AD], AccurateRip returned [E487F2CF]Track 26 cannot be verified as accurate (confidence 10) [804D4D22], AccurateRip returned [7ACF40ED]
No tracks could be verified as accurateYou may have a different pressing from the one(s) in the database
End of status report
==== Log checksum DBD478A9EC7CAC090508F2D4BB8AC7F12F4561F33302479B0A83583903C87E85 ====

Лог создания рипа - Vol.5

Exact Audio Copy V1.0 beta 1 from 15. November 2010
EAC extraction logfile from 14. April 2012, 18:17
Johann Sebastian Bach / Complete Cantatas (1.5)
Used drive : Optiarc DVD RW AD-7203A Adapter: 4 ID: 1
Read mode : SecureUtilize accurate stream : YesDefeat audio cache : YesMake use of C2 pointers : No
Read offset correction : 48Overread into Lead-In and Lead-Out : NoFill up missing offset samples with silence : YesDelete leading and trailing silent blocks : NoNull samples used in CRC calculations : YesUsed interface : Native Win32 interface for Win NT & 2000
Used output format : User Defined EncoderSelected bitrate : 128 kBit/sQuality : HighAdd ID3 tag : NoCommand line compressor : C:\Program Files\FLAC\flac.exeAdditional command line options : -T "COMMENT=Ripped by GFox" -8 -V %s
TOC of the extracted CD
Track | Start | Length | Start sector | End sector --------------------------------------------------------- 1 | 0:00.00 | 2:49.27 | 0 | 12701 2 | 2:49.27 | 1:09.63 | 12702 | 17939 3 | 3:59.15 | 5:39.05 | 17940 | 43369 4 | 9:38.20 | 3:16.22 | 43370 | 58091 5 | 12:54.42 | 1:22.33 | 58092 | 64274 6 | 14:17.00 | 3:18.70 | 64275 | 79194 7 | 17:35.70 | 2:34.12 | 79195 | 90756 8 | 20:10.07 | 1:45.15 | 90757 | 98646 9 | 21:55.22 | 4:33.40 | 98647 | 119161 10 | 26:28.62 | 1:24.63 | 119162 | 125524 11 | 27:53.50 | 4:10.25 | 125525 | 144299 12 | 32:04.00 | 1:59.70 | 144300 | 153294 13 | 34:03.70 | 5:07.47 | 153295 | 176366 14 | 39:11.42 | 2:14.68 | 176367 | 186484 15 | 41:26.35 | 2:38.35 | 186485 | 198369 16 | 44:04.70 | 1:14.05 | 198370 | 203924 17 | 45:19.00 | 5:24.05 | 203925 | 228229 18 | 50:43.05 | 2:03.00 | 228230 | 237454 19 | 52:46.05 | 5:00.42 | 237455 | 259996 20 | 57:46.47 | 2:28.68 | 259997 | 271164 21 | 60:15.40 | 2:52.70 | 271165 | 284134 22 | 63:08.35 | 1:37.40 | 284135 | 291449 23 | 64:46.00 | 1:17.27 | 291450 | 297251 24 | 66:03.27 | 1:54.18 | 297252 | 305819 25 | 67:57.45 | 0:23.62 | 305820 | 307606 26 | 68:21.32 | 3:12.35 | 307607 | 322041 27 | 71:33.67 | 1:43.58 | 322042 | 329824 28 | 73:17.50 | 2:09.07 | 329825 | 339506 29 | 75:26.57 | 2:50.18 | 339507 | 352274
Range status and errors
Selected range
Filename D:\EAC\Johann Sebastian Bach - Complete Cantatas (1.5).wav
Peak level 90.4 % Extraction speed 0.1 X Range quality 100.0 % Test CRC 8286D8DE Copy CRC 8286D8DE Copy OK
No errors occurred
AccurateRip summary
Track 1 accurately ripped (confidence 6) [C6FC0BCA]Track 2 accurately ripped (confidence 6) [D74BBBA1]Track 3 accurately ripped (confidence 6) [4DFE51C3]Track 4 accurately ripped (confidence 6) [77FBFA2A]Track 5 accurately ripped (confidence 6) [C487BE19]Track 6 accurately ripped (confidence 6) [EF0E84A7]Track 7 accurately ripped (confidence 5) [5B2C6C48]Track 8 accurately ripped (confidence 5) [2A26F98C]Track 9 accurately ripped (confidence 6) [5E6E781F]Track 10 accurately ripped (confidence 6) [A3A908A9]Track 11 accurately ripped (confidence 6) [5A8B4FDB]Track 12 accurately ripped (confidence 6) [F0454709]Track 13 accurately ripped (confidence 6) [FE20EBAB]Track 14 accurately ripped (confidence 6) [B08D74CF]Track 15 accurately ripped (confidence 6) [935C3467]Track 16 accurately ripped (confidence 6) [E7A94667]Track 17 accurately ripped (confidence 6) [1998768B]Track 18 accurately ripped (confidence 6) [CD5D24F5]Track 19 accurately ripped (confidence 5) [9E551153]Track 20 accurately ripped (confidence 6) [F3CF058A]Track 21 accurately ripped (confidence 6) [72EAA296]Track 22 accurately ripped (confidence 6) [42DF5D5D]Track 23 accurately ripped (confidence 6) [138D8C76]Track 24 accurately ripped (confidence 6) [406D0EC1]Track 25 accurately ripped (confidence 6) [D069CE6E]Track 26 accurately ripped (confidence 6) [D9CD57CE]Track 27 accurately ripped (confidence 6) [EC2F7C34]Track 28 accurately ripped (confidence 6) [E7E9A034]Track 29 accurately ripped (confidence 6) [DC7EAAF6]
All tracks accurately ripped
End of status report
==== Log checksum 4C9772A02828757BDB9CC9E6D6AEF7FBF4FC41BD71E337C196E3B5CFCC2091BD ====

Лог создания рипа - Vol.6

Exact Audio Copy V1.0 beta 1 from 15. November 2010
EAC extraction logfile from 14. April 2012, 18:58
Johann Sebastian Bach / Complete Cantatas (1.6)
Used drive : Optiarc DVD RW AD-7203A Adapter: 4 ID: 1
Read mode : SecureUtilize accurate stream : YesDefeat audio cache : YesMake use of C2 pointers : No
Read offset correction : 48Overread into Lead-In and Lead-Out : NoFill up missing offset samples with silence : YesDelete leading and trailing silent blocks : NoNull samples used in CRC calculations : YesUsed interface : Native Win32 interface for Win NT & 2000
Used output format : User Defined EncoderSelected bitrate : 128 kBit/sQuality : HighAdd ID3 tag : NoCommand line compressor : C:\Program Files\FLAC\flac.exeAdditional command line options : -T "COMMENT=Ripped by GFox" -8 -V %s
TOC of the extracted CD
Track | Start | Length | Start sector | End sector --------------------------------------------------------- 1 | 0:00.00 | 2:40.00 | 0 | 11999 2 | 2:40.00 | 3:45.00 | 12000 | 28874 3 | 6:25.00 | 2:08.00 | 28875 | 38474 4 | 8:33.00 | 2:28.00 | 38475 | 49574 5 | 11:01.00 | 1:14.00 | 49575 | 55124 6 | 12:15.00 | 2:03.00 | 55125 | 64349 7 | 14:18.00 | 0:50.00 | 64350 | 68099 8 | 15:08.00 | 3:40.00 | 68100 | 84599 9 | 18:48.00 | 1:22.00 | 84600 | 90749 10 | 20:10.00 | 3:06.00 | 90750 | 104699 11 | 23:16.00 | 3:55.00 | 104700 | 122324 12 | 27:11.00 | 4:26.00 | 122325 | 142274 13 | 31:37.00 | 1:29.00 | 142275 | 148949 14 | 33:06.00 | 5:21.00 | 148950 | 173024 15 | 38:27.00 | 3:32.00 | 173025 | 188924 16 | 41:59.00 | 1:18.00 | 188925 | 194774 17 | 43:17.00 | 3:46.00 | 194775 | 211724 18 | 47:03.00 | 4:30.00 | 211725 | 231974 19 | 51:33.00 | 2:39.00 | 231975 | 243899 20 | 54:12.00 | 3:30.00 | 243900 | 259649 21 | 57:42.00 | 4:38.00 | 259650 | 280499 22 | 62:20.00 | 1:25.00 | 280500 | 286874 23 | 63:45.00 | 4:14.00 | 286875 | 305924
Range status and errors
Selected range
Filename D:\EAC\Johann Sebastian Bach - Complete Cantatas (1.6).wav
Peak level 99.9 % Extraction speed 0.2 X Range quality 100.0 % Test CRC 8B98047E Copy CRC 8B98047E Copy OK
No errors occurred
AccurateRip summary
Track 1 accurately ripped (confidence 2) [16D51F17]Track 2 accurately ripped (confidence 2) [9D0EF6FA]Track 3 accurately ripped (confidence 2) [5967F285]Track 4 accurately ripped (confidence 2) [04BCD34E]Track 5 accurately ripped (confidence 2) [9687BE3A]Track 6 accurately ripped (confidence 2) [9429CA24]Track 7 accurately ripped (confidence 2) [35BBFCF1]Track 8 accurately ripped (confidence 2) [D1D7D20F]Track 9 accurately ripped (confidence 2) [E6B967FB]Track 10 accurately ripped (confidence 2) [CED7314D]Track 11 accurately ripped (confidence 2) [986E85AD]Track 12 accurately ripped (confidence 2) [A9B6F83D]Track 13 accurately ripped (confidence 2) [D6560D01]Track 14 accurately ripped (confidence 2) [23077C31]Track 15 accurately ripped (confidence 2) [4406C9A7]Track 16 accurately ripped (confidence 2) [80845BBA]Track 17 accurately ripped (confidence 2) [B6C22A27]Track 18 accurately ripped (confidence 2) [1AAC4CD2]Track 19 accurately ripped (confidence 2) [201FC8B0]Track 20 accurately ripped (confidence 2) [D080E3BF]Track 21 accurately ripped (confidence 2) [22ED28B1]Track 22 accurately ripped (confidence 2) [A2BD3826]Track 23 accurately ripped (confidence 2) [BAE170FE]
All tracks accurately ripped
End of status report
==== Log checksum 5CD1F809209F610A3E961E70E3E20150358B32DCEEDEB54F00776BEEEBC4AD87 ====

Лог создания рипа - Vol.7

Exact Audio Copy V1.0 beta 1 from 15. November 2010
EAC extraction logfile from 15. April 2012, 0:10
Johann Sebastian Bach / Complete Cantatas (1.7)
Used drive : Optiarc DVD RW AD-7203A Adapter: 4 ID: 1
Read mode : SecureUtilize accurate stream : YesDefeat audio cache : YesMake use of C2 pointers : No
Read offset correction : 48Overread into Lead-In and Lead-Out : NoFill up missing offset samples with silence : YesDelete leading and trailing silent blocks : NoNull samples used in CRC calculations : YesUsed interface : Native Win32 interface for Win NT & 2000
Used output format : User Defined EncoderSelected bitrate : 128 kBit/sQuality : HighAdd ID3 tag : NoCommand line compressor : C:\Program Files\FLAC\flac.exeAdditional command line options : -T "COMMENT=Ripped by GFox" -8 -V %s
TOC of the extracted CD
Track | Start | Length | Start sector | End sector --------------------------------------------------------- 1 | 0:00.00 | 5:07.47 | 0 | 23071 2 | 5:07.47 | 3:03.63 | 23072 | 36859 3 | 8:11.35 | 8:03.00 | 36860 | 73084 4 | 16:14.35 | 0:54.19 | 73085 | 77153 5 | 17:08.54 | 3:51.51 | 77154 | 94529 6 | 21:00.30 | 1:03.30 | 94530 | 99284 7 | 22:03.60 | 7:10.40 | 99285 | 131574 8 | 29:14.25 | 2:46.40 | 131575 | 144064 9 | 32:00.65 | 1:20.15 | 144065 | 150079 10 | 33:21.05 | 4:08.27 | 150080 | 168706 11 | 37:29.32 | 0:58.73 | 168707 | 173129 12 | 38:28.30 | 3:26.25 | 173130 | 188604 13 | 41:54.55 | 1:05.35 | 188605 | 193514 14 | 43:00.15 | 6:07.57 | 193515 | 221096 15 | 49:07.72 | 2:12.53 | 221097 | 231049 16 | 51:20.50 | 2:58.35 | 231050 | 244434 17 | 54:19.10 | 2:03.52 | 244435 | 253711 18 | 56:22.62 | 3:45.68 | 253712 | 270654 19 | 60:08.55 | 1:07.67 | 270655 | 275746 20 | 61:16.47 | 3:52.45 | 275747 | 293191 21 | 65:09.17 | 0:47.35 | 293192 | 296751 22 | 65:56.52 | 2:05.45 | 296752 | 306171 23 | 68:02.22 | 3:55.25 | 306172 | 323821 24 | 71:57.47 | 3:43.28 | 323822 | 340574 25 | 75:41.00 | 1:49.02 | 340575 | 348751
Range status and errors
Selected range
Filename D:\EAC\Johann Sebastian Bach - Complete Cantatas (1.7).wav
Peak level 100.0 % Extraction speed 0.0 X Range quality 100.0 % Test CRC CC140161 Copy CRC CC140161 Copy OK
No errors occurred
AccurateRip summary
Track 1 accurately ripped (confidence 2) [1AAC7EBD]Track 2 accurately ripped (confidence 2) [1FD62707]Track 3 accurately ripped (confidence 2) [D8F8FBD1]Track 4 accurately ripped (confidence 2) [896E422B]Track 5 accurately ripped (confidence 2) [D9B8D17B]Track 6 accurately ripped (confidence 2) [5F7220AC]Track 7 accurately ripped (confidence 2) [853F8283]Track 8 accurately ripped (confidence 2) [B6E3F72A]Track 9 accurately ripped (confidence 2) [B85DCBF4]Track 10 accurately ripped (confidence 2) [906B0406]Track 11 accurately ripped (confidence 2) [2E77CD57]Track 12 accurately ripped (confidence 2) [08A3D8B3]Track 13 accurately ripped (confidence 2) [903BAC79]Track 14 accurately ripped (confidence 2) [8FE492A3]Track 15 accurately ripped (confidence 2) [F044BAA7]Track 16 accurately ripped (confidence 2) [2F451101]Track 17 accurately ripped (confidence 2) [BED4F89F]Track 18 accurately ripped (confidence 2) [8812EBB7]Track 19 accurately ripped (confidence 2) [6BA213FF]Track 20 accurately ripped (confidence 2) [089DBEE7]Track 21 accurately ripped (confidence 2) [1FC41658]Track 22 accurately ripped (confidence 2) [629D2413]Track 23 accurately ripped (confidence 2) [6A2D25E7]Track 24 accurately ripped (confidence 2) [328B6119]Track 25 accurately ripped (confidence 2) [CACDEF6E]
All tracks accurately ripped
End of status report
==== Log checksum 009EAEEB9BDAADD06F2972EE04A1B9F683E80A874AD45AA7BCD00F94541C2653 ====

Лог создания рипа - Vol.8

Exact Audio Copy V1.0 beta 1 from 15. November 2010
EAC extraction logfile from 15. April 2012, 1:00
Johann Sebastian Bach / Complete Cantatas (1.8)
Used drive : Optiarc DVD RW AD-7203A Adapter: 4 ID: 1
Read mode : SecureUtilize accurate stream : YesDefeat audio cache : YesMake use of C2 pointers : No
Read offset correction : 48Overread into Lead-In and Lead-Out : NoFill up missing offset samples with silence : YesDelete leading and trailing silent blocks : NoNull samples used in CRC calculations : YesUsed interface : Native Win32 interface for Win NT & 2000
Used output format : User Defined EncoderSelected bitrate : 128 kBit/sQuality : HighAdd ID3 tag : NoCommand line compressor : C:\Program Files\FLAC\flac.exeAdditional command line options : -T "COMMENT=Ripped by GFox" -8 -V %s
TOC of the extracted CD
Track | Start | Length | Start sector | End sector --------------------------------------------------------- 1 | 0:00.00 | 4:40.00 | 0 | 20999 2 | 4:40.00 | 4:43.00 | 21000 | 42224 3 | 9:23.00 | 2:03.22 | 42225 | 51471 4 | 11:26.22 | 2:49.15 | 51472 | 64161 5 | 14:15.37 | 2:22.38 | 64162 | 74849 6 | 16:38.00 | 7:01.37 | 74850 | 106461 7 | 23:39.37 | 1:25.38 | 106462 | 112874 8 | 25:05.00 | 3:13.37 | 112875 | 127386 9 | 28:18.37 | 4:33.23 | 127387 | 147884 10 | 32:51.60 | 4:31.00 | 147885 | 168209 11 | 37:22.60 | 0:51.52 | 168210 | 172086 12 | 38:14.37 | 4:18.38 | 172087 | 191474 13 | 42:33.00 | 0:36.37 | 191475 | 194211 14 | 43:09.37 | 5:30.00 | 194212 | 218961 15 | 48:39.37 | 0:38.38 | 218962 | 221849 16 | 49:18.00 | 1:50.00 | 221850 | 230099 17 | 51:08.00 | 2:14.00 | 230100 | 240149 18 | 53:22.00 | 0:48.37 | 240150 | 243786 19 | 54:10.37 | 2:28.28 | 243787 | 254914 20 | 56:38.65 | 0:33.32 | 254915 | 257421 21 | 57:12.22 | 3:48.08 | 257422 | 274529 22 | 61:00.30 | 0:42.45 | 274530 | 277724 23 | 61:43.00 | 2:21.00 | 277725 | 288299
Range status and errors
Selected range
Filename D:\EAC\Johann Sebastian Bach - Complete Cantatas (1.8).wav
Peak level 87.1 % Extraction speed 0.1 X Range quality 100.0 % Test CRC 73E5B40E Copy CRC 73E5B40E Copy OK
No errors occurred
AccurateRip summary
Track 1 accurately ripped (confidence 3) [4EC67349]Track 2 accurately ripped (confidence 3) [108A99A9]Track 3 accurately ripped (confidence 3) [C4B76F48]Track 4 accurately ripped (confidence 3) [2270CD4E]Track 5 accurately ripped (confidence 3) [6A1BF62B]Track 6 accurately ripped (confidence 3) [946FE7EB]Track 7 accurately ripped (confidence 3) [BA866B4F]Track 8 accurately ripped (confidence 3) [E9EFE1A7]Track 9 accurately ripped (confidence 3) [BD7C10FB]Track 10 accurately ripped (confidence 3) [E8E58B65]Track 11 accurately ripped (confidence 3) [5CB43D4F]Track 12 accurately ripped (confidence 3) [461A7BF5]Track 13 accurately ripped (confidence 3) [CCE0AECC]Track 14 accurately ripped (confidence 3) [BB9188B5]Track 15 accurately ripped (confidence 3) [90451CA0]Track 16 accurately ripped (confidence 3) [9066C83E]Track 17 accurately ripped (confidence 3) [A8BFACC1]Track 18 accurately ripped (confidence 3) [82A4C62F]Track 19 accurately ripped (confidence 3) [F46B5A9D]Track 20 accurately ripped (confidence 3) [9240C659]Track 21 accurately ripped (confidence 3) [06C89613]Track 22 accurately ripped (confidence 3) [2DB403DD]Track 23 accurately ripped (confidence 3) [E7122360]
All tracks accurately ripped
End of status report
==== Log checksum 892C0F469F9E550000A8CEAD2940C3F31578BCA4B23B1E9CFE15CD890D9428B8 ====

Лог создания рипа - Vol.9

Exact Audio Copy V1.0 beta 1 from 15. November 2010
EAC extraction logfile from 15. April 2012, 2:33
Johann Sebastian Bach / Complete Cantatas (1.9)
Used drive : Optiarc DVD RW AD-7203A Adapter: 4 ID: 1
Read mode : SecureUtilize accurate stream : YesDefeat audio cache : YesMake use of C2 pointers : No
Read offset correction : 48Overread into Lead-In and Lead-Out : NoFill up missing offset samples with silence : YesDelete leading and trailing silent blocks : NoNull samples used in CRC calculations : YesUsed interface : Native Win32 interface for Win NT & 2000
Used output format : User Defined EncoderSelected bitrate : 128 kBit/sQuality : HighAdd ID3 tag : NoCommand line compressor : C:\Program Files\FLAC\flac.exeAdditional command line options : -T "COMMENT=Ripped by GFox" -8 -V %s
TOC of the extracted CD
Track | Start | Length | Start sector | End sector --------------------------------------------------------- 1 | 0:00.00 | 4:14.37 | 0 | 19086 2 | 4:14.37 | 1:31.00 | 19087 | 25911 3 | 5:45.37 | 5:34.38 | 25912 | 50999 4 | 11:20.00 | 0:44.00 | 51000 | 54299 5 | 12:04.00 | 3:05.00 | 54300 | 68174 6 | 15:09.00 | 1:35.00 | 68175 | 75299 7 | 16:44.00 | 2:37.00 | 75300 | 87074 8 | 19:21.00 | 2:31.00 | 87075 | 98399 9 | 21:52.00 | 0:52.62 | 98400 | 102361 10 | 22:44.62 | 2:39.13 | 102362 | 114299 11 | 25:24.00 | 0:57.00 | 114300 | 118574 12 | 26:21.00 | 3:57.00 | 118575 | 136349 13 | 30:18.00 | 0:50.00 | 136350 | 140099 14 | 31:08.00 | 2:52.00 | 140100 | 152999 15 | 34:00.00 | 3:07.00 | 153000 | 167024 16 | 37:07.00 | 1:55.00 | 167025 | 175649 17 | 39:02.00 | 2:50.00 | 175650 | 188399 18 | 41:52.00 | 1:44.00 | 188400 | 196199 19 | 43:36.00 | 3:43.00 | 196200 | 212924 20 | 47:19.00 | 1:55.37 | 212925 | 221586 21 | 49:14.37 | 4:42.00 | 221587 | 242736 22 | 53:56.37 | 2:00.00 | 242737 | 251736 23 | 55:56.37 | 7:12.00 | 251737 | 284136 24 | 63:08.37 | 1:19.38 | 284137 | 290099 25 | 64:28.00 | 2:48.00 | 290100 | 302699
Range status and errors
Selected range
Filename D:\EAC\Johann Sebastian Bach - Complete Cantatas (1.9).wav
Peak level 98.0 % Extraction speed 0.1 X Range quality 100.0 % Test CRC B3046A8B Copy CRC B3046A8B Copy OK
No errors occurred
AccurateRip summary
Track 1 accurately ripped (confidence 7) [7B3328A9]Track 2 accurately ripped (confidence 6) [B7C34C44]Track 3 accurately ripped (confidence 6) [140A8404]Track 4 accurately ripped (confidence 7) [5EDD1FCC]Track 5 accurately ripped (confidence 7) [5F0BCA85]Track 6 accurately ripped (confidence 6) [6749A6D2]Track 7 accurately ripped (confidence 7) [AF1D465D]Track 8 accurately ripped (confidence 6) [8D30D8D5]Track 9 accurately ripped (confidence 7) [2A7EB44F]Track 10 accurately ripped (confidence 7) [C1E1A6FE]Track 11 accurately ripped (confidence 7) [531D32BB]Track 12 accurately ripped (confidence 6) [3AA80200]Track 13 accurately ripped (confidence 6) [81CFD03F]Track 14 accurately ripped (confidence 7) [72C0673E]Track 15 accurately ripped (confidence 7) [1433B151]Track 16 accurately ripped (confidence 7) [15DCC3F6]Track 17 accurately ripped (confidence 7) [56D53202]Track 18 accurately ripped (confidence 6) [9197D413]Track 19 accurately ripped (confidence 7) [EF1F4F02]Track 20 accurately ripped (confidence 7) [51E63F51]Track 21 accurately ripped (confidence 7) [E03C4479]Track 22 accurately ripped (confidence 7) [28C2CA05]Track 23 accurately ripped (confidence 6) [3090BE19]Track 24 accurately ripped (confidence 7) [EA058759]Track 25 accurately ripped (confidence 7) [98EE3F5E]
All tracks accurately ripped
End of status report
==== Log checksum 9B96D28C1F5D319519570914F2E695C0A085A1B37BFAF081D3ED4B4DAB37CAA5 ====

Лог создания рипа - Vol.10

Exact Audio Copy V1.0 beta 1 from 15. November 2010
EAC extraction logfile from 15. April 2012, 12:12
Johann Sebastian Bach / Complete Cantatas (1.10)
Used drive : Optiarc DVD RW AD-7203A Adapter: 4 ID: 1
Read mode : SecureUtilize accurate stream : YesDefeat audio cache : YesMake use of C2 pointers : No
Read offset correction : 48Overread into Lead-In and Lead-Out : NoFill up missing offset samples with silence : YesDelete leading and trailing silent blocks : NoNull samples used in CRC calculations : YesUsed interface : Native Win32 interface for Win NT & 2000
Used output format : User Defined EncoderSelected bitrate : 128 kBit/sQuality : HighAdd ID3 tag : NoCommand line compressor : C:\Program Files\FLAC\flac.exeAdditional command line options : -T "COMMENT=Ripped by GFox" -8 -V %s
TOC of the extracted CD
Track | Start | Length | Start sector | End sector --------------------------------------------------------- 1 | 0:00.00 | 5:08.37 | 0 | 23136 2 | 5:08.37 | 0:53.35 | 23137 | 27146 3 | 6:01.72 | 6:06.03 | 27147 | 54599 4 | 12:08.00 | 2:11.00 | 54600 | 64424 5 | 14:19.00 | 5:15.37 | 64425 | 88086 6 | 19:34.37 | 2:06.00 | 88087 | 97536 7 | 21:40.37 | 2:53.13 | 97537 | 110524 8 | 24:33.50 | 1:02.25 | 110525 | 115199 9 | 25:36.00 | 2:34.00 | 115200 | 126749 10 | 28:10.00 | 1:36.00 | 126750 | 133949 11 | 29:46.00 | 5:36.37 | 133950 | 159186 12 | 35:22.37 | 1:15.00 | 159187 | 164811 13 | 36:37.37 | 3:17.53 | 164812 | 179639 14 | 39:55.15 | 1:31.60 | 179640 | 186524 15 | 41:27.00 | 1:58.00 | 186525 | 195374 16 | 43:25.00 | 2:20.22 | 195375 | 205896 17 | 45:45.22 | 2:43.45 | 205897 | 218166 18 | 48:28.67 | 2:05.30 | 218167 | 227571 19 | 50:34.22 | 1:33.00 | 227572 | 234546 20 | 52:07.22 | 3:03.28 | 234547 | 248299 21 | 55:10.50 | 1:45.55 | 248300 | 256229 22 | 56:56.30 | 3:45.67 | 256230 | 273171 23 | 60:42.22 | 2:27.53 | 273172 | 284249
Range status and errors
Selected range
Filename D:\EAC\Johann Sebastian Bach - Complete Cantatas (1.10).wav
Peak level 100.0 % Extraction speed 0.1 X Range quality 100.0 % Test CRC 96A09FBE Copy CRC 96A09FBE Copy OK
No errors occurred
AccurateRip summary
Track 1 accurately ripped (confidence 8) [E35C352F]Track 2 accurately ripped (confidence 8) [7E3B8DE8]Track 3 accurately ripped (confidence 8) [004585D5]Track 4 accurately ripped (confidence 8) [F6E319FA]Track 5 accurately ripped (confidence 8) [79780A5A]Track 6 accurately ripped (confidence 8) [A0CE919E]Track 7 accurately ripped (confidence 8) [647583FF]Track 8 accurately ripped (confidence 8) [38FCDE4D]Track 9 accurately ripped (confidence 8) [9C9F0947]Track 10 accurately ripped (confidence 8) [0C7F3A11]Track 11 accurately ripped (confidence 8) [BF930D15]Track 12 accurately ripped (confidence 8) [8B427537]Track 13 accurately ripped (confidence 8) [EAA3FC3F]Track 14 accurately ripped (confidence 8) [7A1BCF74]Track 15 accurately ripped (confidence 8) [7D294D3D]Track 16 accurately ripped (confidence 8) [358BBFF4]Track 17 accurately ripped (confidence 8) [F0D143AB]Track 18 accurately ripped (confidence 8) [FB4BF859]Track 19 accurately ripped (confidence 8) [F82D3ECC]Track 20 accurately ripped (confidence 8) [C95CE944]Track 21 accurately ripped (confidence 8) [D15CE5F3]Track 22 accurately ripped (confidence 8) [6E493857]Track 23 accurately ripped (confidence 7) [EC71594E]
All tracks accurately ripped
End of status report
==== Log checksum 0789616DD59883C25FEED40E8EDCB32B834CB6917955D1598F66AC06B237C373 ====

Box 2 Vols.11-20: Erfreut euch!

Жанр: Classical
Страна-производитель диска: Austria
Год издания диска: 2009
Издатель (лейбл): BIS
Номер по каталогу: BIS-CD-9027/29
Дата записи: 1998-2001
Аудиокодек: FLAC
Тип рипа: image+.cue
Битрейт аудио: lossless
Источник: собственный рип
Наличие сканов в содержимом раздачи: да

Vol.11: BWV 46 • 95 • 136 • 138 (1:07'56")

'Erforsche mich, Gott' BWV 136
01. I. Erforsche mich, Gott
02. II. Ach, dass der Fluch
03. III. Es kommt ein Tag
04. IV. Die Himmel selber sind nicht rein
05. V. Uns treffen zwar
06. VI. Dein Blut, der edle Saft
'Warum betrubst du dich' BWV 138
07. I. Warum betrubst du dich
08. II. Ich bin veracht
09. III. Ach susser Trost
10. IV. Auf Gott steht mein Zuversicht
11. V. Ei nun
12. VI. Weil du mein Gott und Vater bist
'Christus, der ist mein Leben' BWV 95
13. I. Christus, der ist mein Leben
14. II. Nun, falsche Welt
15. III. Valet will ich dir geben
16. IV. Ach konnte mir doch bald
17. V. Ach, schlage doch bald
18. VI. Denn ich weiss dies
19. VII. Weil du vom Tod erstanden bist
'Schauet doch und sehet' BWV 46
20. I. Schauet doch und sehet
21. II. So klage du
22. III. Ein Wetter zog sich auf
23. IV. Doch bildet euch
24. V. Doch Jesus will auch bei der Strafe
25. VI. O grosser Gott von Treu
Midori Suzuki, soprano
Kai Wessel, counter-tenor
Makoto Sakurada, tenor
Peter Kooij, bass

Vol.12: BWV 147 • 21 (1:09'19")

'Herz un Mund und Tat und Leben' BWV 147
01. I. Herz und Mund und Tat und Leben
02. II. Gebenedeiter Mund!
03. III. Schame dich, o Seele nicht
04. IV. Verstockung kann Gewaltige
05. V. Bereite dir, Jesu, noch itzo
06. VI. Wohl mir, da. ich Jesum habe
07. VII. Hilf, Jesu, hilf, da. ich
08. VIII. Der hochsten Allmacht Wunder
09. IX. Ich will von Jesu Wundern singen
10. X. Jesu bleibet meine Freude
'Ich hatte viel Bekummernis' BWV 21
11. I. Sinfonia
12. II. Ich hatte viel Bekummernis
13. III. Seufzer, Tranen, Kummer, Not
14. IV. Wie hast du dich, mein Gott
15. V. Bache von gesalzenen Zahren
16. VI. Was betrubst du dich, meine Seele
17. VII. Ach, Jesu, meine Ruhe
18. VIII. Komm, mein Jesu
19. IX. Sei nun wieder zufrieden
20. X. Erfreue dich, Seele
21. XI. Das Lamm, das erwurget ist
Yukari Nonoshita, soprano
Robin Blaze, counter-tenor
Gerd Turk, tenor
Peter Kooij, bass
Concerto Palatino Brass Ensemble

Vol.13: BWV 25 • 50 • 64 • 69a • 77 (1:10'58")

'Sehet, welch eine Liebe' BWV 64
01. I. Sehet, welch eine Liebe
02. II. Das hat er alles uns getan
03. III. Geh, Welt!
04. IV. Was frag ich nach der Welt
05. V. Was die Welt in sich halt
06. VI. Der Himmel bleibet mir gewiss
07. VII. Von der Welt verlang ich nichts
08. VIII. Gute Nacht, o Wesen
'Es ist nichts gesundes an meinem Leibe' BWV 25
09. I. Es ist nichts gesundes
10. II. Die ganze Welt
11. III. Ach, wo hol ich
12. IV. O Jesu, lieber Meister
13. V. Offne meinen schlechten
14. VI. Ich will alle meine Tage
'Lobe den Herrn, meine Seele' BWV 69a
15. I. Lobe den Herrn, meine Seele
16. II. Ach, dass ich tausend
17. III. Meine Seele, auf, erzahle
18. IV. Gedenk ich nur zuruck
19. V. Mein Erloser und Erhalter
20. VI. Was Gott tut, dass ist wohl getan
'Du sollt Gott, deinen Herren, lieben' BWV 77
21. I. Du sollt Gott, deinen
22. II. So muss es sein
23. III. Mein Gott, ich liebe dich
24. IV. Gib mir dabei, mein Gott
25. V. Ach, es bleibet in meiner
26. VI. Herr, durch den Glauben
'Nun ist das Heil und die Kraft' BWV 50 (fragment)
27. Nun ist das Heil und die
Yukari Nonoshita, soprano
Yoshie Hida, soprano
Robin Blaze, alto
Kirsten Sollek-Avella, alto
Gerd Turk, tenor
Makoto Sakurada, tenor
Peter Kooij, bass
Concerto Palatino Brass Ensemble

Vol.14: BWV 48 • 89 • 109 • 148 (1:06'02")

'Bringet dem Herrn' BWV 148
01. I. Bringet dem Herrn Ehre seines Namens
02. II. Ich eile, die Lehren
03. III. So, wie der Hirsch nach frischem Wasser
04. IV. Mund und Herze steht dir offen
05. V. Bleib auch, mein Gott, in mir
06. VI. Amen zur aller Stund
'Ich elender Mensch' BWV 48
07. I. Ich elender Mensch, wer wird mich erlosen
08. II. O Schmerz, o Elend, so mich trifft
09. III. Solls ja so sein, dass Straf und Pein
10. IV. Ach lege das Sodom der sundlichen Glieder
11. V. Hier aber tut der Heilands Hand
12. VI. Vergibt mir Jesus meine Sunden
13. VII. Herr Jesu Christ, einiger Trost
'Was soll ich aus dir machen' BWV 89
14. I. Was soll ich aus dir machen, Ephraim
15. II. Ja, freilich sollte Gott
16. III. Ein unbarmherziges Gerichte
17. IV. Wohlan! mein Herze legt
18. V. Gerechter Gott, ach rechnest du?
19. VI. Mir mangelt zwar sehr viel
'Ich glaube, lieber Herr' BWV 109
20. I. Ich glaube, lieber Herr, hilf meinem
21. II. Des Herren Hand ist ja noch nicht
22. III. Wie zweifelachtig ist mein Hoffen
23. IV. O fasse dich, du zweifelhafter Mut
24. V. Der Heiland kennet ja die Seinen
25. VI. Wer hofft in Gott und dem vertraut
Midori Suzuki, soprano
Robin Blaze, alto
Gerd Turk, tenor
Chiyuki Urano, bass

Vol.15: BWV 40 • 60 • 70 • 90 (1:07'33")

'Darzu ist erschienen der Sohn Gottes' BWV 40
01. I. Darzu ist erschienen
02. II. Das Wort ward Fleisch
03. III. Die Sund macht Leid
04. IV. Hollische Schlange
05. V. Die schlange, so im Paradies
06. VI. Schuttle deinen Kopf
07. VII. Christenkinder, freuet
08. VIII. Jesu, nimm dich deiner
'O Ewigkeit, du Donnerwort' BWV 60
09. I. O Ewigkeit, du Donnerwort
10. II. O schwerer Gang
11. III. Mein letztes Lager
12. IV. Der Tod Bleibt doch
13. V. Es ist genung
'Wachet! betet! betet! wachet!' BWV 70
14. I. Wachet! betet! betet! wachet!
15. II. Erschrecket, ihr verstockten
16. III. Wenn kommt der Tag
17. IV. Auch bei dem himmlischen Verlangen
18. V. Last der Spotter Zungen schmahen
19. VI. Jedoch bei dem unartigen
20. VII. Freu dich sehr, o meine seele
21. VIII. Hebt euer Haupt empor
22. IX. Ach, soll nicht dieser grosse Tag
23. X. Seligster Erquickungstag
24. XI. Nicht nach welt, nach Himmel nicht
'Es reiset euch ein schrecklich Ende' BWV 90
25. I. Es reiset euch
26. II. Des Hochsten Gute wird
27. III. So loschet im Eifer
28. IV. Doch Gottes Auge sieht auf
29. V. Leit uns mit deiner
Yukari Nonoshita, soprano
Robin Blaze, counter-tenor
Gerd Turk, tenor
Peter Kooij, bass

Vol.16: BWV 119 • 194 (1:02'48")

'Hochsterwunschtes Freudenfest' BWV 194
01. I. Hochsterwunschtes Freudenfest
02. II. Unendlich grosser Gott
03. III. Was des Hochsten Glanz erfullt
04. IV. Wie konnte dir, du hochstes
05. V. Hilf, Gott, dass es uns gelingt
06. VI. Heilger Geist ins Himmels Throne
07. VII. Ihr Heiligen, erfreut euch
08. VIII. Des Hochsten Gegenwart allein
09. IX. Kann wohl ein Mensch zu Gott
10. X. O wie wohl ist uns geschehen
11. XI. Wohlan demnach, du heilige
12. XII. Sprich Ja zu meinen Taten
'Preise, Jerusalem, den Herrn' BWV 119
13. I. Preise, Jerusalem, den Herrn
14. II. Gesegnet Land, Gluckselge Stadt
15. III. Wohl dir, du Volk der Linden
16. IV. So herrlich stehst du, liebe Stadt
17. V. Die Obrigkeit ist Gottes Gabe
18. VI. Nun! wir erkennen es
19. VII. Der Herr hat Guts an uns getan
20. VIII. Zuletzt! da du uns, Herr
21. IX. Hilf deinem Volk, Jesu Christ
Yukari Nonoshita, soprano
Yoshie Hida, soprano
Kirsten Sollek-Avella, alto
Makoto Sakurada, te
[teatrix.ru].t8005.torrent 
Торрент: Зарегистрирован [ 2015-10-14 02:49 ] · 197985DB1A3AE4E897BD06C76FFE7CB02AB20D1B

Скачать .torrent

Скачать

73 KB

Статус: проверено
Скачан: 0 раз
Размер: 20.05 GB
terms.php



Быстрый ответ

Имя:

      
Для отправки сообщений необходимо включить JavaScript
Показать сообщения:    

Текущее время: 05-Дек 13:27

Часовой пояс: UTC + 3


Вы можете начинать темы
Вы можете отвечать на сообщения
Вы не можете редактировать свои сообщения
Вы не можете удалять свои сообщения
Вы не можете голосовать в опросах
Вы не можете прикреплять файлы к сообщениям
Вы можете скачивать файлы