(Baroque Oratorio) Handel - Semele (Diaz, Armstrong, Watts, Tear, Palmer - English Chamber Orchestra, Somary) - 1998, FLAC (image+.cue) lossless


Статистика раздачи [Обновить пиров]
Размер:  676 MB   |    Зарегистрирован:  1 год 1 месяц   |    Скачан:  1 раз

Полного источника не было: 2 дня

 
   
 
 
 

[Цитировать]

Handel - Semele
Жанр: Baroque Oratorio
Страна-производитель диска: EU
Год издания диска: 1998
Издатель (лейбл): Brilliant
Номер по каталогу: 99270
Дата записи: 1977
Аудиокодек: FLAC
Тип рипа: image+.cue
Битрейт аудио: lossless
Продолжительность: 73'27 + 70'19
Источник: собственный рип
Наличие сканов в содержимом раздачи: да
Треклист:

CD1

1 Act 1. Scene 1. Overture
2 Act 1. Scene 1. Behold! suspicious flashes rise
3 Act 1. Scene 1. Lucky omens bless our rites
4 Act 1. Scene 1. Daughter, obey
5 Act 1. Scene 1. Ah me! What refuge now is left me?
6 Act 1. Scene 1. Alas! she yields, and has undone me!
7 Act 1. Scene 1. Avert these omens, all ye pow'rs!
8 Act 1. Scene 1. Again auspicius flashes rise
9 Act 1. Scene 3. Ah, wretched prince, doom'd to disastrous love!
10 Act 1. Scene 4. See, see! Jove's Priests and holy Augurs come.
11 Act 1. Scene 4. Endless pleasure, endless love
12 Act 2. Scene 1. Sinfonia
13 Act 2. Scene 1. No more! I'll hear no more!
14 Act 2. Scene 2. Oh sleep, why dost thou leave me?
15 Act 2. Scene 3. Let me not another moment
16 Act 2. Scene 3. You are mortal and require
17 Act 2. Scene 3. Why sighs my Semele!
18 Act 2. Scene 3. Now Love that everlasting boy invites
19 Act 2. Scene 3. By my command
20 Act 2. Scene 4. Dear sister, how was your journey hither?

CD2

1 Act 2. Scene 4. Prepare then, ye immortal choir!
2 Act 2. Scene 4. Bless the glad earth with heav'nly lays!
3 Act 3. Sinfonia
4 Act 3. Scene 1. Somnus, awake!
5 Act 3. Scene 1. Dull God, canst thou attend the water's fall
6 Act 3. Scene 1. More sweet is that name
7 Act 3. Scene 3. O ecstasy of happiness
8 Act 3. Scene 3. Be wise, as you are beautiful
9 Act 3. Scene 3. Rich odeurs fill the fragrant air
10 Act 3. Scene 4. Come to my arms
11 Act 3. Scene 4. Speak, speak your desire
12 Act 3. Scene 4. No, no, I'll take no less
13 Act 3. Scene 5. Ah, whither is she gone! unhappy fair!
14 Act 3. Scene 6. Above measure
15 Act 3. Scene 7. Ah me! too late I now repent
16 Act 3. Scene 8. Of my ill-boding dream
17 Act 3. Final Scene. A bright cloud descends and rests upon
18 Act 3. Final Scene. Apollo comes, to relieve your care
Исполнители:
Georg Frideric Handel - Semele, Oratorio (1744)
Justino Diaz (bass)
Mark Deller (countertenor)
Sheila Armstrong (soprano)
Helen Watts (contralto)
Felicity Palmer (soprano)
Robert Tear (tenor)
Edgar Fleet (tenor)
Amor Artis Chorale
John McCarthy
English Chamber Orchestra
Johannes Somary

Лог создания рипа

CD1

Exact Audio Copy V1.0 beta 3 from 29. August 2011
EAC extraction logfile from 28. November 2013, 13:17
Handel / Semele, Somary 1994 CD1
Used drive : TSSTcorpCDDVDW SE-208AB Adapter: 1 ID: 0
Read mode : Secure
Utilize accurate stream : Yes
Defeat audio cache : Yes
Make use of C2 pointers : No
Read offset correction : 6
Overread into Lead-In and Lead-Out : No
Fill up missing offset samples with silence : Yes
Delete leading and trailing silent blocks : No
Null samples used in CRC calculations : Yes
Used interface : Native Win32 interface for Win NT & 2000
Used output format : User Defined Encoder
Selected bitrate : 768 kBit/s
Quality : High
Add ID3 tag : No
Command line compressor : C:\Program Files\Exact Audio Copy\FLAC\FLAC.EXE
Additional command line options : -6 -V -T "ARTIST=%artist%" -T "TITLE=%title%" -T "ALBUM=%albumtitle%" -T "DATE=%year%" -T "TRACKNUMBER=%tracknr%" -T "GENRE=%genre%" -T "COMMENT=%comment%" -T "BAND=%albuminterpret%" -T "ALBUMARTIST=%albuminterpret%" -T "COMPOSER=%composer%" %haslyrics%--tag-from-file=LYRICS="%lyricsfile%"%haslyrics% -T "DISCNUMBER=%cdnumber%" -T "TOTALDISCS=%totalcds%" -T "TOTALTRACKS=%numtracks%" %hascover%--picture="%coverfile%"%hascover% %source% -o %dest%
TOC of the extracted CD
Track | Start | Length | Start sector | End sector
---------------------------------------------------------
1 | 0:00.00 | 5:59.35 | 0 | 26959
2 | 5:59.35 | 1:55.50 | 26960 | 35634
3 | 7:55.10 | 3:54.27 | 35635 | 53211
4 | 11:49.37 | 1:14.23 | 53212 | 58784
5 | 13:03.60 | 3:37.27 | 58785 | 75086
6 | 16:41.12 | 4:28.33 | 75087 | 95219
7 | 21:09.45 | 2:12.25 | 95220 | 105144
8 | 23:21.70 | 2:06.07 | 105145 | 114601
9 | 25:28.02 | 3:07.58 | 114602 | 128684
10 | 28:35.60 | 1:38.30 | 128685 | 136064
11 | 30:14.15 | 4:54.02 | 136065 | 158116
12 | 35:08.17 | 1:52.23 | 158117 | 166539
13 | 37:00.40 | 6:17.72 | 166540 | 194886
14 | 43:18.37 | 3:50.70 | 194887 | 212206
15 | 47:09.32 | 4:14.35 | 212207 | 231291
16 | 51:23.67 | 4:55.60 | 231292 | 253476
17 | 56:19.52 | 3:55.38 | 253477 | 271139
18 | 60:15.15 | 2:43.72 | 271140 | 283436
19 | 62:59.12 | 6:47.13 | 283437 | 313974
20 | 69:46.25 | 3:41.47 | 313975 | 330596
Range status and errors
Selected range
Filename L:\04 NAAR RUTRACKER\Handel - Semele, Somary 1994 CD1.wav
Peak level 90.9 %
Extraction speed 4.8 X
Range quality 99.9 %
Test CRC 6B24B53F
Copy CRC 6B24B53F
Copy OK
No errors occurred
AccurateRip summary
Track 1 accurately ripped (confidence 3) [8AF6C3CF] (AR v1)
Track 2 accurately ripped (confidence 2) [A686E77A] (AR v1)
Track 3 accurately ripped (confidence 2) [CD55B03E] (AR v1)
Track 4 accurately ripped (confidence 2) [04865B05] (AR v1)
Track 5 accurately ripped (confidence 2) [EAF4C151] (AR v1)
Track 6 accurately ripped (confidence 2) [F42B40CC] (AR v1)
Track 7 accurately ripped (confidence 2) [2E394314] (AR v1)
Track 8 accurately ripped (confidence 2) [1F699D12] (AR v1)
Track 9 accurately ripped (confidence 2) [3D5FC076] (AR v1)
Track 10 accurately ripped (confidence 2) [444ED866] (AR v1)
Track 11 accurately ripped (confidence 2) [C7DF0EAA] (AR v1)
Track 12 accurately ripped (confidence 2) [7720882B] (AR v1)
Track 13 accurately ripped (confidence 2) [56246DF4] (AR v1)
Track 14 accurately ripped (confidence 2) [4081CB3C] (AR v1)
Track 15 accurately ripped (confidence 2) [DDA30186] (AR v1)
Track 16 accurately ripped (confidence 2) [7F7F13FB] (AR v1)
Track 17 accurately ripped (confidence 2) [5050CDF5] (AR v1)
Track 18 accurately ripped (confidence 2) [CB9D54AF] (AR v1)
Track 19 accurately ripped (confidence 2) [01E9B4FD] (AR v1)
Track 20 accurately ripped (confidence 2) [0608B5FF] (AR v1)
All tracks accurately ripped
End of status report
---- CUETools DB Plugin V2.1.3
[CTDB TOCID: z43CV5xU9.jhktOUTKlj5fmH7sc-] found, Submit result: z43CV5xU9.jhktOUTKlj5fmH7sc- has been confirmed
[c2ad6cb7] (5/5) Accurately ripped
==== Log checksum E06ECCDC66350AD689C325EF22EC0198C52502E9CF3762E4F76F6E55F661F0E1 ====

CD2

Exact Audio Copy V1.0 beta 3 from 29. August 2011
EAC extraction logfile from 28. November 2013, 12:43
Handel / Semele, Somary 1994 CD2
Used drive : TSSTcorpCDDVDW SE-208AB Adapter: 1 ID: 0
Read mode : Secure
Utilize accurate stream : Yes
Defeat audio cache : Yes
Make use of C2 pointers : No
Read offset correction : 6
Overread into Lead-In and Lead-Out : No
Fill up missing offset samples with silence : Yes
Delete leading and trailing silent blocks : No
Null samples used in CRC calculations : Yes
Used interface : Native Win32 interface for Win NT & 2000
Used output format : User Defined Encoder
Selected bitrate : 768 kBit/s
Quality : High
Add ID3 tag : No
Command line compressor : C:\Program Files\Exact Audio Copy\FLAC\FLAC.EXE
Additional command line options : -6 -V -T "ARTIST=%artist%" -T "TITLE=%title%" -T "ALBUM=%albumtitle%" -T "DATE=%year%" -T "TRACKNUMBER=%tracknr%" -T "GENRE=%genre%" -T "COMMENT=%comment%" -T "BAND=%albuminterpret%" -T "ALBUMARTIST=%albuminterpret%" -T "COMPOSER=%composer%" %haslyrics%--tag-from-file=LYRICS="%lyricsfile%"%haslyrics% -T "DISCNUMBER=%cdnumber%" -T "TOTALDISCS=%totalcds%" -T "TOTALTRACKS=%numtracks%" %hascover%--picture="%coverfile%"%hascover% %source% -o %dest%
TOC of the extracted CD
Track | Start | Length | Start sector | End sector
---------------------------------------------------------
1 | 0:00.00 | 2:28.22 | 0 | 11121
2 | 2:28.22 | 2:58.60 | 11122 | 24531
3 | 5:27.07 | 1:58.05 | 24532 | 33386
4 | 7:25.12 | 5:08.30 | 33387 | 56516
5 | 12:33.42 | 3:37.35 | 56517 | 72826
6 | 16:11.02 | 3:17.08 | 72827 | 87609
7 | 19:28.10 | 7:29.52 | 87610 | 121336
8 | 26:57.62 | 4:56.70 | 121337 | 143606
9 | 31:54.57 | 4:07.63 | 143607 | 162194
10 | 36:02.45 | 2:55.00 | 162195 | 175319
11 | 38:57.45 | 3:28.20 | 175320 | 190939
12 | 42:25.65 | 5:56.55 | 190940 | 217694
13 | 48:22.45 | 3:51.60 | 217695 | 235079
14 | 52:14.30 | 2:21.00 | 235080 | 245654
15 | 54:35.30 | 4:19.62 | 245655 | 265141
16 | 58:55.17 | 5:08.45 | 265142 | 288286
17 | 64:03.62 | 1:44.55 | 288287 | 296141
18 | 65:48.42 | 4:31.10 | 296142 | 316476
Range status and errors
Selected range
Filename L:\04 NAAR RUTRACKER\Handel - Semele, Somary 1994 CD2.wav
Peak level 92.4 %
Extraction speed 4.6 X
Range quality 99.9 %
Test CRC 76719DC8
Copy CRC 76719DC8
Copy OK
No errors occurred
AccurateRip summary
Track 1 accurately ripped (confidence 3) [DC5693D4] (AR v2)
Track 2 accurately ripped (confidence 3) [1656EE4B] (AR v2)
Track 3 accurately ripped (confidence 3) [F4F89D35] (AR v2)
Track 4 accurately ripped (confidence 3) [E201C8B3] (AR v2)
Track 5 accurately ripped (confidence 3) [A884EB25] (AR v2)
Track 6 accurately ripped (confidence 3) [8D419599] (AR v2)
Track 7 accurately ripped (confidence 3) [FF972AFA] (AR v2)
Track 8 accurately ripped (confidence 3) [FAF263B1] (AR v2)
Track 9 accurately ripped (confidence 3) [0B7E16F4] (AR v2)
Track 10 accurately ripped (confidence 3) [5CFEF55E] (AR v2)
Track 11 accurately ripped (confidence 3) [4A77E684] (AR v2)
Track 12 accurately ripped (confidence 3) [685018A4] (AR v2)
Track 13 accurately ripped (confidence 3) [9DD95C76] (AR v2)
Track 14 accurately ripped (confidence 3) [6364DEDD] (AR v2)
Track 15 accurately ripped (confidence 3) [9616E57E] (AR v2)
Track 16 accurately ripped (confidence 3) [58F5A0FB] (AR v2)
Track 17 accurately ripped (confidence 3) [7BE99D55] (AR v2)
Track 18 accurately ripped (confidence 3) [A8C8A44B] (AR v2)
All tracks accurately ripped
End of status report
---- CUETools DB Plugin V2.1.3
[CTDB TOCID: 9unX8hC3wMQSzXxee0DSdJva7n0-] found, Submit result: 9unX8hC3wMQSzXxee0DSdJva7n0- has been confirmed
[6ca83282] (5/5) Accurately ripped
==== Log checksum 5AC87BBE7CCE2FDE230BBCD10756937DB38E1AD539F9E7CAF4414F8F0E4CDA61 ====

Содержание индексной карты (.CUE)

CD1

REM GENRE Oratorio
REM DATE 1994
REM DISCID F5113714
REM COMMENT "ExactAudioCopy v1.0b3"
PERFORMER "Handel"
TITLE "Semele, Somary 1994 CD1"
FILE "Handel - Semele, Somary 1994 CD1.flac" WAVE
TRACK 01 AUDIO
TITLE "Semele: Act I, Scene I. Overture"
PERFORMER "Handel"
INDEX 01 00:00:00
TRACK 02 AUDIO
TITLE "Semele: Act I, Scene I. Recitative (Priest)"
PERFORMER "Handel"
INDEX 01 05:59:35
TRACK 03 AUDIO
TITLE "Semele: Act I, Scene I. Chorus of Priests"
PERFORMER "Handel"
INDEX 01 07:55:10
TRACK 04 AUDIO
TITLE "Semele: Act I, Scene I. Recitative - Duet (Cadmus, Athamas)"
PERFORMER "Handel"
INDEX 01 11:49:37
TRACK 05 AUDIO
TITLE "Semele: Act I, Scene I. Recitative & Aria (Semele)"
PERFORMER "Handel"
INDEX 01 13:03:60
TRACK 06 AUDIO
TITLE "Semele: Act I, Scene I. Recitative (Ino, Athamas, Semele) - Quartet 'Cadmus, ..."
PERFORMER "Handel"
INDEX 01 16:41:12
TRACK 07 AUDIO
TITLE "Semele: Act I, Scene I. Chorus of Priests"
PERFORMER "Handel"
INDEX 01 21:09:45
TRACK 08 AUDIO
TITLE "Semele: Act I, Scene I. Recitative (Cadmus, Athamas, Semele, Chorus of Priests)"
PERFORMER "Handel"
INDEX 01 23:21:70
TRACK 09 AUDIO
TITLE "Semele: Act I, Scene III. Recitative & Aria (Cadmus, Athamas, Ino)"
PERFORMER "Handel"
INDEX 01 25:28:02
TRACK 10 AUDIO
TITLE "Semele: Act I, Scene IV. Recitative (Cadmus) - Chorus of Priests & Augurs"
PERFORMER "Handel"
INDEX 01 28:35:60
TRACK 11 AUDIO
TITLE "Semele: Act I, Scene IV. Aria (Semele, Chorus)"
PERFORMER "Handel"
INDEX 01 30:14:15
TRACK 12 AUDIO
TITLE "Semele: Act II, Scene I. Sinfonia"
PERFORMER "Handel"
INDEX 01 35:08:17
TRACK 13 AUDIO
TITLE "Semele: Act II, Scene I. Recitative & Aria (Juno, Iris)"
PERFORMER "Handel"
INDEX 01 37:00:40
TRACK 14 AUDIO
TITLE "Semele: Act II, Scene II. Recitative (Semele)"
PERFORMER "Handel"
INDEX 01 43:18:37
TRACK 15 AUDIO
TITLE "Semele: Act II, Scene III. Aria (Semele, Jupiter)"
PERFORMER "Handel"
INDEX 01 47:09:32
TRACK 16 AUDIO
TITLE "Semele: Act II, Scene III. Recitative (Jupiter) - Aria (Semele) - Chorus of l..."
PERFORMER "Handel"
INDEX 01 51:23:67
TRACK 17 AUDIO
TITLE "Semele: Act II, Scene III. Recitative & Aria (Jupiter, Semele)"
PERFORMER "Handel"
INDEX 01 56:19:52
TRACK 18 AUDIO
TITLE "Semele: Act II, Scene III. Chorus of Loves & Zephyrs"
PERFORMER "Handel"
INDEX 01 60:15:15
TRACK 19 AUDIO
TITLE "Semele: Act II, Scene III. Recitative & Aria (Jupiter, Semele)"
PERFORMER "Handel"
INDEX 01 62:59:12
TRACK 20 AUDIO
TITLE "Semele: Act II, Scene IV. Recitative & Aria (Semele, Ino)"
PERFORMER "Handel"
INDEX 01 69:46:25

CD2

REM GENRE Oratorio
REM DATE 1994
REM DISCID 0B107B12
REM COMMENT "ExactAudioCopy v1.0b3"
PERFORMER "Handel"
TITLE "Semele, Somary 1994 CD2"
FILE "Handel - Semele, Somary 1994 CD2.flac" WAVE
TRACK 01 AUDIO
TITLE "Semele: Act II, Scene IV. Duet (Semele & Ino)"
PERFORMER "Handel"
INDEX 01 00:00:00
TRACK 02 AUDIO
TITLE "Semele: Act II, Scene IV. Chorus"
PERFORMER "Handel"
INDEX 01 02:28:22
TRACK 03 AUDIO
TITLE "Semele: Act III. Sinfonia"
PERFORMER "Handel"
INDEX 01 05:27:07
TRACK 04 AUDIO
TITLE "Semele: Act III, Scene I. Recitative & Aria (Juno, Iris, Somnus)"
PERFORMER "Handel"
INDEX 01 07:25:12
TRACK 05 AUDIO
TITLE "Semele: Act III, Scene I. Recitative & Aria (Iris, Juno, Somnus)"
PERFORMER "Handel"
INDEX 01 12:33:42
TRACK 06 AUDIO
TITLE "Semele: Act III, Scene I. Aria (Juno, Somnus)"
PERFORMER "Handel"
INDEX 01 16:11:02
TRACK 07 AUDIO
TITLE "Semele: Act III, Scene III. Aria (Juno, Semele)"
PERFORMER "Handel"
INDEX 01 19:28:10
TRACK 08 AUDIO
TITLE "Semele: Act III, Scene III. Recitative & Aria (Juno, Semele)"
PERFORMER "Handel"
INDEX 01 26:57:62
TRACK 09 AUDIO
TITLE "Semele: Act III, Scene IV. Recitative & Aria (Juno, Semele)"
PERFORMER "Handel"
INDEX 01 31:54:57
TRACK 10 AUDIO
TITLE "Semele: Act III, Scene IV. Aria (Semele)"
PERFORMER "Handel"
INDEX 01 36:02:45
TRACK 11 AUDIO
TITLE "Semele: Act III, Scene IV. Recitative & Aria (Jupiter, Semele)"
PERFORMER "Handel"
INDEX 01 38:57:45
TRACK 12 AUDIO
TITLE "Semele: Act III, Scene IV. Aria (Semele)"
PERFORMER "Handel"
INDEX 01 42:25:65
TRACK 13 AUDIO
TITLE "Semele: Act III, Scene V. Aria (Jupiter)"
PERFORMER "Handel"
INDEX 01 48:22:45
TRACK 14 AUDIO
TITLE "Semele: Act III, Scene VI. Aria (Juno)"
PERFORMER "Handel"
INDEX 01 52:14:30
TRACK 15 AUDIO
TITLE "Semele: Act III, Scene VII. Aria (Semele)"
PERFORMER "Handel"
INDEX 01 54:35:30
TRACK 16 AUDIO
TITLE "Semele: Act III, Scene VIII. Recit (Ino, Chorus)"
PERFORMER "Handel"
INDEX 01 58:55:17
TRACK 17 AUDIO
TITLE "Semele: Act III Sc. the last. Sinfonia"
PERFORMER "Handel"
INDEX 01 64:03:62
TRACK 18 AUDIO
TITLE "Semele: Act III Sc. the last. Recitative & Aria (Apollo, Chorus)"
PERFORMER "Handel"
INDEX 01 65:48:42
Доп. информация:
The genre of Semele has always been somewhat ambiguous.
Handel used an opera libretto by William Congreve for his text, but at its premiere he presented it as an oratorio.
Its secular, dramatic story is certainly operatic, but its music includes stylistic elements of both Handel's English sacred oratorios and his Italian operas, so it's understandable why the original audiences didn't easily embrace the work, since it failed to fully satisfy the preferences of devotees of either genre.
Audiences today aren't likely to be troubled by that issue, but more problematic are Congreve's distractingly mannered text and the morally queasy plot.
(Semele, an emotionally complex but appealing mortal character, is the lover of Jupiter. Juno, Jupiter's jealous wife, conspires to have Semele painfully incinerated, after which she is immediately forgotten, and the opera ends in a scene of rejoicing at her sister Ino's wedding.)
Handel has created much attractive, varied, and expressive music for the score, which includes one of his loveliest and best-known solos, "Where 'er you walk."
The opera receives a fine performance in this 1977 recording, with Johannes Somary leading the English Chamber Orchestra and Amor Artis Chorale, and a cast made up largely of British stars of the era.
In Somary's reading, the work sounds more like an oratorio because of his measured, sometimes deliberate pacing, and because the gaps between the numbers break up any sense of dramatic flow.
As Semele, Sheila Armstrong doesn't have a large voice, but it's clear and pure with an agile tessitura, and her delicacy makes her portrayal all the more poignant.
Contralto Helen Watts, singing both Ino and Juno, effectively differentiates the characters and is especially powerful as the vindictive Juno.
American bass Justino Diaz is a strong presence, warmly resonant as Cadmus and Somnus.
Robert Tear brings some English-oratorio-tenor mannerisms to the role of Jupiter, but he has moments of real eloquence.
The sound is present and nicely ambient.
[teatrix.ru].t8006.torrent 
Торрент: Зарегистрирован [ 2015-10-14 02:49 ] · EBB628F3A551464308763B4AF57BA85E8300F44D

Скачать .torrent

Скачать

15 KB

Статус: проверено
Скачан: 1 раз
Размер: 676 MB
terms.php



Быстрый ответ

Имя:

      
Для отправки сообщений необходимо включить JavaScript
Показать сообщения:    

Текущее время: 05-Дек 19:39

Часовой пояс: UTC + 3


Вы можете начинать темы
Вы можете отвечать на сообщения
Вы не можете редактировать свои сообщения
Вы не можете удалять свои сообщения
Вы не можете голосовать в опросах
Вы не можете прикреплять файлы к сообщениям
Вы можете скачивать файлы