(Classical, sacred) Christopher Tye - Missa Euge bone; Peccavimus; Western Wynde Mass - The Choir of Westminster Abbey, James O\'Donnell - 2012, FLAC (image+.cue) lossless


Статистика раздачи [Обновить пиров]
Размер:  321 MB   |    Зарегистрирован:  1 год 1 месяц   |    Скачан:  0 раз

Полного источника не было: Никогда

 
   
 
 
 

[Цитировать]

Christopher Tye - Missa Euge bone; Peccavimus; Western Wynde Mass - The Choir of Westminster Abbey, James O'Donnell
Жанр: Classical, sacred
Страна-производитель диска: UK
Год издания диска: 2012
Издатель (лейбл): Hyperion
Номер по каталогу: CDA67928
Дата записи: 2011
Аудиокодек: FLAC
Тип рипа: image+.cue
Битрейт аудио: lossless
Продолжительность: 73:49
Источник: собственный рип
Наличие сканов в содержимом раздачи: да
Треклист:
Christopher Tye (c.1505 - before 15 March 1573)
[1] Quaesumus omnipotens & misericors Deus
[2]-[9] Missa Euge bone
[10] Give almes of thy goods
[11] Christ rising
[12] Peccavimus cum patribus nostris
[13]-[19] Western Wynde Mass
[20] Nunc dimittis
Исполнители:
The Choir of Westminster Abbey
James O'Donnell
conductor

Лог создания рипа

Exact Audio Copy V1.0 beta 3 from 29. August 2011
EAC extraction logfile from 7. December 2013, 2:12
Westminster Abbey Choir, James O'Donnell / Tye - Missa Euge bone; Western Wynde Mass
Used drive : HL-DT-STDVDRAM GSA-4083N Adapter: 1 ID: 0
Read mode : SecureUtilize accurate stream : YesDefeat audio cache : YesMake use of C2 pointers : No
Read offset correction : 667Overread into Lead-In and Lead-Out : NoFill up missing offset samples with silence : YesDelete leading and trailing silent blocks : NoNull samples used in CRC calculations : YesUsed interface : Native Win32 interface for Win NT & 2000
Used output format : User Defined EncoderSelected bitrate : 896 kBit/sQuality : HighAdd ID3 tag : NoCommand line compressor : C:\Program Files\Exact Audio Copy\Flac\flac.exeAdditional command line options : -V -8 %source%
TOC of the extracted CD
Track | Start | Length | Start sector | End sector --------------------------------------------------------- 1 | 0:00.00 | 6:25.16 | 0 | 28890 2 | 6:25.16 | 5:55.18 | 28891 | 55533 3 | 12:20.34 | 4:53.05 | 55534 | 77513 4 | 17:13.39 | 3:46.47 | 77514 | 94510 5 | 21:00.11 | 2:22.25 | 94511 | 105185 6 | 23:22.36 | 1:03.20 | 105186 | 109930 7 | 24:25.56 | 1:32.13 | 109931 | 116843 8 | 25:57.69 | 1:18.26 | 116844 | 122719 9 | 27:16.20 | 1:13.17 | 122720 | 128211 10 | 28:29.37 | 1:47.24 | 128212 | 136260 11 | 30:16.61 | 3:40.31 | 136261 | 152791 12 | 33:57.17 | 11:39.28 | 152792 | 205244 13 | 45:36.45 | 6:32.56 | 205245 | 234700 14 | 52:09.26 | 6:53.08 | 234701 | 265683 15 | 59:02.34 | 4:01.68 | 265684 | 283826 16 | 63:04.27 | 2:38.52 | 283827 | 295728 17 | 65:43.04 | 1:05.48 | 295729 | 300651 18 | 66:48.52 | 1:38.56 | 300652 | 308057 19 | 68:27.33 | 1:48.27 | 308058 | 316184 20 | 70:15.60 | 3:33.26 | 316185 | 332185
Range status and errors
Selected range
Filename J:\New Music\Tye - Missa Euge bone; Western Wynde Mass\Tye - Missa Euge bone; Western Wynde Mass.wav
Peak level 98.7 % Extraction speed 2.6 X Range quality 100.0 % Test CRC 07C9D4D5 Copy CRC 07C9D4D5 Copy OK
No errors occurred
AccurateRip summary
Track 1 not present in databaseTrack 2 not present in databaseTrack 3 not present in databaseTrack 4 not present in databaseTrack 5 not present in databaseTrack 6 not present in databaseTrack 7 not present in databaseTrack 8 not present in databaseTrack 9 not present in databaseTrack 10 not present in databaseTrack 11 not present in databaseTrack 12 not present in databaseTrack 13 not present in databaseTrack 14 not present in databaseTrack 15 not present in databaseTrack 16 not present in databaseTrack 17 not present in databaseTrack 18 not present in databaseTrack 19 not present in databaseTrack 20 not present in database
None of the tracks are present in the AccurateRip database
End of status report
==== Log checksum B072D2982F086287E671B1E55BD0DCB2C3B85DCA26A75DE9CCAA46DB2D4C3283 ====
[teatrix.ru].t8007.torrent 
Торрент: Зарегистрирован [ 2015-10-14 02:49 ] · 492792C7D55D3030D0A328C3EA13107386A1522B

Скачать .torrent

Скачать

26 KB

Статус: проверено
Скачан: 0 раз
Размер: 321 MB
terms.php



Быстрый ответ

Имя:

      
Для отправки сообщений необходимо включить JavaScript
Показать сообщения:    

Текущее время: 03-Дек 05:29

Часовой пояс: UTC + 3


Вы можете начинать темы
Вы можете отвечать на сообщения
Вы не можете редактировать свои сообщения
Вы не можете удалять свои сообщения
Вы не можете голосовать в опросах
Вы не можете прикреплять файлы к сообщениям
Вы можете скачивать файлы