(Classical, Renaissance) Lamentations de la Renaissance (Paul Van Nevel & Huelgas-Ensemble; Massaino, White, Orto, Lassus) - 1999, FLAC (image+.cue) lossless


Статистика раздачи [Обновить пиров]
Размер:  292 MB   |    Зарегистрирован:  1 год 1 месяц   |    Скачан:  0 раз

Полного источника не было: Никогда

 
   
 
 
 

[Цитировать]

Lamentations de la Renaissance (Paul Van Nevel & Huelgas-Ensemble; Massaino, White, Orto, Lassus)
Жанр: Classical, Renaissance
Год издания диска: 1999
Издатель (лейбл): Harmonia Mundi
Номер по каталогу: HMC 901682
Аудиокодек: FLAC
Тип рипа: image+.cue
Битрейт аудио: lossless
Продолжительность: 69:41
Источник: собственный рип
Наличие сканов в содержимом раздачи: да
Треклист:
Tiburto Massaino (1550-1609):
01. Musica super Threnos leremiae prophete: Feria V. In coena Domini: I. Lectio Prima
02. II. Lectio Secunda
03. III. Lectio Tertia
Robert White (1538-1574):
04. Lamentations a 5: I. Lectio Prima
05. II. Lectio Secunda
Marbrianus de Orto (1460-1529):
06. Lamentatio Jeremie Prophete a 4: I. Incipit – Aleph
07. II. Beth
08. III. Ghimel
Roland de Lassus (1532-1594):
09. Lamentationes Hieremiae Feria sexta in Parasceve a 5 - Lamentatio Prima
10. II. Lamentatio Secunda
11. III. Lamentatio Tertia
Исполнители:
Huelgas-Ensemble
Dir. Paul Van Nevel

LOG EAC

Exact Audio Copy V1.0 beta 1 from 15. November 2010
EAC extraction logfile from 7. March 2012, 15:00
Paul Van Nevel & Huelgas-Ensemble / Lamentations de la Renaissance
Used drive : PIONEER DVD-RW DVR-218L Adapter: 1 ID: 0
Read mode : SecureUtilize accurate stream : YesDefeat audio cache : YesMake use of C2 pointers : No
Read offset correction : 6Overread into Lead-In and Lead-Out : NoFill up missing offset samples with silence : YesDelete leading and trailing silent blocks : NoNull samples used in CRC calculations : YesUsed interface : Native Win32 interface for Win NT & 2000
Used output format : User Defined EncoderSelected bitrate : 192 kBit/sQuality : HighAdd ID3 tag : NoCommand line compressor : C:\Program Files\Exact Audio Copy\Flac\flac.exeAdditional command line options : -T "DATE=%y" -T "GENRE=%m" -8 -V %s
TOC of the extracted CD
Track | Start | Length | Start sector | End sector --------------------------------------------------------- 1 | 0:00.00 | 5:09.35 | 0 | 23209 2 | 5:09.35 | 5:31.10 | 23210 | 48044 3 | 10:40.45 | 7:03.15 | 48045 | 79784 4 | 17:43.60 | 9:51.52 | 79785 | 124161 5 | 27:35.37 | 8:56.38 | 124162 | 164399 6 | 36:32.00 | 3:36.00 | 164400 | 180599 7 | 40:08.00 | 2:48.25 | 180600 | 193224 8 | 42:56.25 | 4:57.72 | 193225 | 215571 9 | 47:54.22 | 7:35.08 | 215572 | 249704 10 | 55:29.30 | 7:13.20 | 249705 | 282199 11 | 62:42.50 | 6:58.72 | 282200 | 313621
Range status and errors
Selected range
Filename C:\Lamentations de la Renaissance.wav
Peak level 88.0 % Extraction speed 0.1 X Range quality 100.0 % Test CRC 1A651EFB Copy CRC 1A651EFB Copy OK
No errors occurred
AccurateRip summary
Track 1 accurately ripped (confidence 5) [B1F21AA8]Track 2 accurately ripped (confidence 5) [CD777B6B]Track 3 accurately ripped (confidence 5) [847813F9]Track 4 accurately ripped (confidence 5) [239210C0]Track 5 accurately ripped (confidence 5) [00CEF8CF]Track 6 accurately ripped (confidence 5) [AFEEEEC5]Track 7 accurately ripped (confidence 5) [91B9D1EE]Track 8 accurately ripped (confidence 5) [842C5E79]Track 9 accurately ripped (confidence 5) [69C1C8FC]Track 10 accurately ripped (confidence 5) [7D314C0B]Track 11 accurately ripped (confidence 5) [FEF7A122]
All tracks accurately ripped
End of status report
==== Log checksum 97414B0E4C4FDAA37A59DDEE192C938BC120AB0DF9DF2DCDDAC9F4E77C99C50A ====

Содержание индексной карты (.CUE)

REM GENRE ClassicalREM DATE 1999REM DISCID 9410550BREM COMMENT "ExactAudioCopy v1.0b1"PERFORMER "Paul Van Nevel & Huelgas-Ensemble"TITLE "Lamentations de la Renaissance"FILE "Lamentations de la Renaissance.flac" WAVE TRACK 01 AUDIO TITLE "Tiburto Massaino. Musica super Threnos leremiae prophete: Feria V. In coena D..." PERFORMER "Paul Van Nevel & Huelgas-Ensemble" INDEX 01 00:00:00 TRACK 02 AUDIO TITLE "II. Lectio Secunda" PERFORMER "Paul Van Nevel & Huelgas-Ensemble" INDEX 01 05:09:35 TRACK 03 AUDIO TITLE "III. Lectio Tertia" PERFORMER "Paul Van Nevel & Huelgas-Ensemble" INDEX 01 10:40:45 TRACK 04 AUDIO TITLE "Robert White. Lamentations a 5: I. Lectio Prima" PERFORMER "Paul Van Nevel & Huelgas-Ensemble" INDEX 00 17:36:20 INDEX 01 17:43:60 TRACK 05 AUDIO TITLE "II. Lectio Secunda" PERFORMER "Paul Van Nevel & Huelgas-Ensemble" INDEX 01 27:35:37 TRACK 06 AUDIO TITLE "Marbrianus de Orto. Lamentatio Jeremie Prophete a 4: I. Incipit - Aleph" PERFORMER "Paul Van Nevel & Huelgas-Ensemble" INDEX 00 36:24:40 INDEX 01 36:32:00 TRACK 07 AUDIO TITLE "II. Beth" PERFORMER "Paul Van Nevel & Huelgas-Ensemble" INDEX 01 40:08:00 TRACK 08 AUDIO TITLE "III. Ghimel" PERFORMER "Paul Van Nevel & Huelgas-Ensemble" INDEX 01 42:56:25 TRACK 09 AUDIO TITLE "Roland de Lassus. Lamentationes Hieremiae Feria sexta in Parasceve a 5: I. La..." PERFORMER "Paul Van Nevel & Huelgas-Ensemble" INDEX 00 47:45:07 INDEX 01 47:54:22 TRACK 10 AUDIO TITLE "II. Lamentatio Secunda" PERFORMER "Paul Van Nevel & Huelgas-Ensemble" INDEX 01 55:29:30 TRACK 11 AUDIO TITLE "III. Lamentatio Tertia" PERFORMER "Paul Van Nevel & Huelgas-Ensemble" INDEX 01 62:42:50
mp3
[teatrix.ru].t8008.torrent 
Торрент: Зарегистрирован [ 2015-10-14 02:49 ] · E23C1B1DEE03547FC5B9BDBCF274A20A94DBC613

Скачать .torrent

Скачать

13 KB

Статус: проверено
Скачан: 0 раз
Размер: 292 MB
terms.php



Быстрый ответ

Имя:

      
Для отправки сообщений необходимо включить JavaScript
Показать сообщения:    

Текущее время: 10-Дек 21:36

Часовой пояс: UTC + 3


Вы можете начинать темы
Вы можете отвечать на сообщения
Вы не можете редактировать свои сообщения
Вы не можете удалять свои сообщения
Вы не можете голосовать в опросах
Вы не можете прикреплять файлы к сообщениям
Вы можете скачивать файлы