(Classical, sacred) Peter Philips - Cantiones sacrae octonis vocibus - The Choir of Royal Holloway, The English Cornett and Sackbut Ensemble, Rupert Gough - 2013, FLAC (image+.cue) lossless


Статистика раздачи [Обновить пиров]
Размер:  292 MB   |    Зарегистрирован:  1 год 1 месяц   |    Скачан:  0 раз

Полного источника не было: Никогда

 
   
 
 
 

[Цитировать]

Peter Philips - Cantiones sacrae octonis vocibus - The Choir of Royal Holloway, The English Cornett and Sackbut Ensemble, Rupert Gough
Жанр: Classical, sacred
Страна-производитель диска: UK
Год издания диска: 2013
Издатель (лейбл): Hyperion
Номер по каталогу: CDA67945
Дата записи: 2012
Аудиокодек: FLAC
Тип рипа: image+.cue
Битрейт аудио: lossless
Продолжительность: 71:59
Источник: собственный рип
Наличие сканов в содержимом раздачи: да
Треклист:
Peter Philips (1560/61-1628)
Cantiones sacrae octonis vocibus (1613)
[1] Benedictus Deus noster
[2] O quam suavis II
[3] Jubilate Deo omnis terra
[4] Benedictus Dominus
[5] Veni Sancte Spiritus (Chant, cornett & organ version)
[6] Beati estis
[7] Ecce panis angelorum
[8] Salve regina, vita, dulcedo
[9] Regina caeli laetare
[10] Panis sancte, panis vive
[11] Caecilia virgo
[12] Veni Sancte Spiritus (Organ version)
[13] Gaudens gaudebo
[14] Beata Dei genitrix
[15] Alma redemptoris mater
[16] Hodie nobis de caelo
Исполнители:
The Choir of Royal Holloway
The English Cornett and Sackbut Ensemble
Rupert Gough
conductor

Лог создания рипа

Exact Audio Copy V1.0 beta 3 from 29. August 2011
EAC extraction logfile from 31. October 2013, 13:31
Royal Holloway Choir, Rupert Gough / Philips - Cantiones Sacrae Octonis Vocibus
Used drive : HL-DT-STDVDRRW GWA-4164B Adapter: 5 ID: 0
Read mode : SecureUtilize accurate stream : YesDefeat audio cache : YesMake use of C2 pointers : No
Read offset correction : 102Overread into Lead-In and Lead-Out : NoFill up missing offset samples with silence : YesDelete leading and trailing silent blocks : NoNull samples used in CRC calculations : YesUsed interface : Native Win32 interface for Win NT & 2000
Used output format : User Defined EncoderSelected bitrate : 896 kBit/sQuality : HighAdd ID3 tag : NoCommand line compressor : C:\Program Files\Exact Audio Copy\FLAC\FLAC.EXEAdditional command line options : -V -8 %source%
TOC of the extracted CD
Track | Start | Length | Start sector | End sector --------------------------------------------------------- 1 | 0:00.00 | 3:33.14 | 0 | 15988 2 | 3:33.14 | 4:57.63 | 15989 | 38326 3 | 8:31.02 | 3:34.27 | 38327 | 54403 4 | 12:05.29 | 3:49.55 | 54404 | 71633 5 | 15:55.09 | 4:38.48 | 71634 | 92531 6 | 20:33.57 | 3:09.60 | 92532 | 106766 7 | 23:43.42 | 4:49.73 | 106767 | 128514 8 | 28:33.40 | 6:01.63 | 128515 | 155652 9 | 34:35.28 | 4:01.23 | 155653 | 173750 10 | 38:36.51 | 3:57.45 | 173751 | 191570 11 | 42:34.21 | 7:33.13 | 191571 | 225558 12 | 50:07.34 | 5:31.23 | 225559 | 250406 13 | 55:38.57 | 3:09.41 | 250407 | 264622 14 | 58:48.23 | 3:42.41 | 264623 | 281313 15 | 62:30.64 | 4:17.10 | 281314 | 300598 16 | 66:47.74 | 5:09.44 | 300599 | 323817
Range status and errors
Selected range
Filename C:\temp\CDA67945 - Philips - Cantiones sacrae octonis vocibus (The Choir of Royal Holloway, The English Cornett and Sackbut Ensemble, Gough - HYPERION)\CD\Philips - Cantiones Sacrae Octonis Vocibus.wav
Peak level 94.9 % Extraction speed 3.8 X Range quality 100.0 % Test CRC 9B2EC8CA Copy CRC 9B2EC8CA Copy OK
No errors occurred
AccurateRip summary
Track 1 not present in databaseTrack 2 not present in databaseTrack 3 not present in databaseTrack 4 not present in databaseTrack 5 not present in databaseTrack 6 not present in databaseTrack 7 not present in databaseTrack 8 not present in databaseTrack 9 not present in databaseTrack 10 not present in databaseTrack 11 not present in databaseTrack 12 not present in databaseTrack 13 not present in databaseTrack 14 not present in databaseTrack 15 not present in databaseTrack 16 not present in database
None of the tracks are present in the AccurateRip database
End of status report
==== Log checksum 1D945543AC509359F6C2CB35E3AE8A7115BB355E4F8750B113575A6DF89E685C ====
[teatrix.ru].t8009.torrent 
Торрент: Зарегистрирован [ 2015-10-14 02:49 ] · ABCF3152A3AD96AB2E69C257409EBB86B9A14458

Скачать .torrent

Скачать

24 KB

Статус: проверено
Скачан: 0 раз
Размер: 292 MB
terms.php



Быстрый ответ

Имя:

      
Для отправки сообщений необходимо включить JavaScript
Показать сообщения:    

Текущее время: 05-Дек 05:31

Часовой пояс: UTC + 3


Вы можете начинать темы
Вы можете отвечать на сообщения
Вы не можете редактировать свои сообщения
Вы не можете удалять свои сообщения
Вы не можете голосовать в опросах
Вы не можете прикреплять файлы к сообщениям
Вы можете скачивать файлы