(Classical, Baroque) Johann Sebastian Bach - Magnificat in D major, BWV 243 (Gunther Ramin, 1944); Orchestral Suite No. 3 in D major, BWV 1068 (Otto Klemperer, 1957) - 2011, FLAC (image+.cue) lossless


Статистика раздачи [Обновить пиров]
Размер:  181 MB   |    Зарегистрирован:  1 год 3 месяца   |    Скачан:  1 раз

Полного источника не было: 3 месяца 27 дней

 
   
 
 
 

[Цитировать]

Johann Sebastian Bach
(1685 - 1750)
Magnificat in D major, BWV 243 (Gunther Ramin, 1944)
Orchestral Suite No. 3 in D major, BWV 1068 (Otto Klemperer, 1957) Треклист:
Magnificat in D major, BWV 243
Written: circa 1728-1731; Leipzig, Germany
Recorded in Leipzig on 24th November 1944
Erika Rokyta (soprano), Lore Fischer (alto), Heinz Marten (tenor), Josef Greindl (bass-baritone)
Gewandhausorchester Leipzig, Gunther Ramin
01. Magnificat
02. Et exsultavit spiritus meus
03. Quia respexit humilitatem
04. Omnes generationes
05. Quia fecit mihi magna
06. Et misericordia
07. Fecit potentiam
08. Deposuit potentes
09. Esurientes implevit bonis
10. Suscepit Israel
11. Sicut locutus est
12. Gloria Patri
Orchestral Suite No. 3 in D major, BWV 1068
Written: circa 1729-1731; Leipzig, Germany
Recorded in Munich in 1957
Symphonieorchester des Bayerischen Rundfunks, Otto Klemperer
13. Ouverture
14. Air (Air on the G String)
15. Gavotte 1 & 2
16. Bourree
17. Gigue
Жанр: Classical, Baroque Год издания диска: 2011 Издатель: Archipel Records Номер по каталогу: ARPCD0518 Дата записи: 1944 Аудиокодек: FLAC Тип рипа: image+.cue Битрейт аудио: lossless Продолжительность: 00:59 Источник: собственный рип Наличие сканов : да

CUE

REM GENRE ClassicalREM DATE 1944REM COMMENT Bach, J S:\Magnificat in D major, BWV243\Recorded in Leipzig on 24th November 1944\Erika Rokyta (soprano), Lore Fischer (alto), Heinz Marten (tenor), Josef Greindl(bass-baritone)\Gewandhausorchester Leipzig, Gunther Ramin\Orchestral Suite No. 3 in D major, BWV1068\Recorded in Munich in 1957\Symphonieorchester des Bayerischen Rundfunks, Otto KlempererPERFORMER "Johann Sebastian Bach"TITLE "Johann Sebastian Bach - Magnificat in D major, BWV 243 (Gunther Ramin, 1944); Orchestral Suite No. 3 in D major, BWV 1068 (Otto Klemperer, 1957)Johann Sebastian Bach - Magnificat in D major, BWV 243 (Gunther Ramin, 1944); Orchestral Suite No. 3 in D major, BWV 1068 (Otto Klemperer, 1957)"FILE "CDImage.flac" WAVE TRACK 01 AUDIO TITLE "- Magnificat in D major, BWV 243 - Magnificat" INDEX 01 00:00:00 TRACK 02 AUDIO TITLE "Et exsultavit spiritus meus" INDEX 01 03:34:72 TRACK 03 AUDIO TITLE "Quia respexit humilitatem" INDEX 01 06:29:70 TRACK 04 AUDIO TITLE "Omnes generationes" INDEX 01 10:01:65 TRACK 05 AUDIO TITLE "Quia fecit mihi magna" INDEX 01 12:18:52 TRACK 06 AUDIO TITLE "Et misericordia" INDEX 01 14:44:01 TRACK 07 AUDIO TITLE "Fecit potentiam" INDEX 01 18:54:08 TRACK 08 AUDIO TITLE "Deposuit potentes" INDEX 01 21:49:21 TRACK 09 AUDIO TITLE "Esurientes implevit bonis" INDEX 01 23:59:61 TRACK 10 AUDIO TITLE "Suscepit Israel" INDEX 01 28:01:14 TRACK 11 AUDIO TITLE "Sicut locutus est" INDEX 01 30:20:02 TRACK 12 AUDIO TITLE "Gloria Patri" INDEX 01 32:05:60 TRACK 13 AUDIO TITLE "- Orchestral Suite No. 3 in D major, BWV 1068 - Ouverture" INDEX 01 34:57:26 TRACK 14 AUDIO TITLE "Air (Air on the G String)" INDEX 01 44:27:09 TRACK 15 AUDIO TITLE "Gavotte 1 & 2" INDEX 01 51:13:42 TRACK 16 AUDIO TITLE "Bourree" INDEX 01 54:55:20 TRACK 17 AUDIO TITLE "Gigue" INDEX 01 56:19:68

Audiochecker log

AUDIOCHECKER v2.0 beta (build 457) - by Dester - opdester@freemail.hu~~~~~~~~~~~~~~~~~~~~~~~~~~~~~~~~~~-=== DO NOT EDIT THIS FILE! ===-
Path: ...\FLAC-CUE
1 -=- CDImage.flac -=- MPEG (79%)
221828436
[teatrix.ru].t8010.torrent 
Торрент: Зарегистрирован [ 2015-10-14 02:49 ] · 0F3058BD01F2FF444564515A679185857CD1243C

Скачать .torrent

Скачать

15 KB

Статус: проверено
Скачан: 1 раз
Размер: 181 MB
terms.php



Быстрый ответ

Имя:

      
Для отправки сообщений необходимо включить JavaScript
Показать сообщения:    

Текущее время: 21-Янв 11:36

Часовой пояс: UTC + 3


Вы можете начинать темы
Вы можете отвечать на сообщения
Вы не можете редактировать свои сообщения
Вы не можете удалять свои сообщения
Вы не можете голосовать в опросах
Вы не можете прикреплять файлы к сообщениям
Вы можете скачивать файлы