(Classical / Choral) Mozart - Requiem / Моцарт - Реквием (Harper, Hodgson, Pears, Shirley-Quirk, Benjamin Britten, 20.06.1971) | Benjamin Britten in conversation with Donald Mitchell (1969) - 2002, FLAC (tracks+.cue) lossless


Статистика раздачи [Обновить пиров]
Размер:  219 MB   |    Зарегистрирован:  1 год 1 месяц   |    Скачан:  0 раз

Полного источника не было: Никогда

 
   
 
 
 

[Цитировать]

Wolfgang Amadeus Mozart | Вольфганг Амадей Моцарт
(1756–1791)



Requiem | Реквием


Heather Harper sopranoAlfreda Hodgson contralto
Peter Pears tenorJohn Shirley-Quirk bass
Aldeburgh Festival ChorusEnglish Chamber Orchestra
Benjamin Britten conductor


Жанр: Classical / Choral
Дата и место записи: Aldeburgh, 1971/1969
Формат записи: ADD, Mono
Год издания диска: 2002
Издатель (лейбл): BBC Legends
Номер по каталогу: BBCL 4119-2
Аудиокодек: FLAC
Тип рипа: tracks+.cue
Битрейт аудио: lossless
Продолжительность: 1:16:33
Наличие сканов в содержимом раздачи: да
Источник: What.CD
Релизёр: PCzar


Tracklist / Треклист
Requiem, KV 626 - 49:57
I. Introitus: Requiem aeternam - 4:59
  • II. Kyrie - 2:39
  • III. Sequentia: Dies irae - 1:50
  • Tuba mirum - 3:28
  • Rex tremendae - 1:22
  • Recordare - 5:38
  • Confutatis - 2:20
  • Lacrimosa - 2:55
  • IV. Offertorium: Domine Jesu - 3:33
  • Hostias - 4:07
  • V. Sanctus - 1:58
  • VI. Benedictus - 6:01
  • VII. Agnus Dei - 2:55
  • VIII. Communio: Lux aeterna - 6:13
    Recorded: Aldeburgh Festival, Concert Hall, Snape Maltings, Suffolk, 20 June 1971Benjamin Britten in conversation with Donald Mitchell - 26:36
    I. Opera - 7:50
  • II. Composing - 3:59
  • III. Dreams - 3:45
  • IV. Teaching - 5:42
  • V. Map-reading - 5:21
    Recorded: The Red House, Aldeburgh, February 1969

    -

    EAC log / Отчёт EAC

    Exact Audio Copy V1.0 beta 3 from 29. August 2011
    EAC extraction logfile from 18. November 2012, 19:39
    Harper, Hodgson, Pears, Shirley-Quirk - English Chamber Orchestra, Benjamin Britten / BBC Legends - B.Britten - Mozart, Requiem
    Used drive : TSSTcorpCDDVDW SH-222BB Adapter: 2 ID: 0
    Read mode : SecureUtilize accurate stream : YesDefeat audio cache : YesMake use of C2 pointers : No
    Read offset correction : 6Overread into Lead-In and Lead-Out : NoFill up missing offset samples with silence : YesDelete leading and trailing silent blocks : NoNull samples used in CRC calculations : YesUsed interface : Native Win32 interface for Win NT & 2000Gap handling : Appended to previous track
    Used output format : User Defined EncoderSelected bitrate : 192 kBit/sQuality : HighAdd ID3 tag : NoCommand line compressor : C:\Program Files (x86)\FLAC\flac.exeAdditional command line options : -T "artist=%artist%" -T "title=%title%" -T "album=%albumtitle%" -T "date=%year%" -T "tracknumber=%tracknr%" -T "genre=%genre%" -T "comment=%comment%" -T "composer=%composer%" -8 %source%
    TOC of the extracted CD
    Track | Start | Length | Start sector | End sector --------------------------------------------------------- 1 | 0:00.00 | 4:58.50 | 0 | 22399 2 | 4:58.50 | 2:38.50 | 22400 | 34299 3 | 7:37.25 | 1:50.20 | 34300 | 42569 4 | 9:27.45 | 3:28.05 | 42570 | 58174 5 | 12:55.50 | 1:21.40 | 58175 | 64289 6 | 14:17.15 | 5:38.25 | 64290 | 89664 7 | 19:55.40 | 2:19.42 | 89665 | 100131 8 | 22:15.07 | 2:54.45 | 100132 | 113226 9 | 25:09.52 | 3:33.13 | 113227 | 129214 10 | 28:42.65 | 4:07.20 | 129215 | 147759 11 | 32:50.10 | 1:57.45 | 147760 | 156579 12 | 34:47.55 | 6:01.07 | 156580 | 183661 13 | 40:48.62 | 2:55.28 | 183662 | 196814 14 | 43:44.15 | 6:12.50 | 196815 | 224764 15 | 49:56.65 | 7:50.02 | 224765 | 260016 16 | 57:46.67 | 3:58.50 | 260017 | 277916 17 | 61:45.42 | 3:45.05 | 277917 | 294796 18 | 65:30.47 | 5:41.68 | 294797 | 320439 19 | 71:12.40 | 5:20.45 | 320440 | 344484
    Track 1
    Filename H:\EAC NEW Rips\01 - Mozart, Requiem KV 626 - I. Introitus (Requiem Aeternam).wav
    Pre-gap length 0:00:02.00
    Peak level 90.2 % Extraction speed 1.9 X Track quality 100.0 % Test CRC 7C872955 Copy CRC 7C872955 Accurately ripped (confidence 3) [822E9E4B] (AR v1) Copy OK
    Track 2
    Filename H:\EAC NEW Rips\02 - Mozart, Requiem KV 626 - II. Kyrie.wav
    Peak level 89.2 % Extraction speed 1.6 X Track quality 99.9 % Test CRC EE979980 Copy CRC EE979980 Accurately ripped (confidence 3) [ACE44A9E] (AR v1) Copy OK
    Track 3
    Filename H:\EAC NEW Rips\03 - Mozart, Requiem KV 626 - III. Sequentia (Dies irae).wav
    Peak level 90.4 % Extraction speed 1.8 X Track quality 100.0 % Test CRC 0B77D791 Copy CRC 0B77D791 Accurately ripped (confidence 3) [5B6BDF44] (AR v1) Copy OK
    Track 4
    Filename H:\EAC NEW Rips\04 - Mozart, Requiem KV 626 - III. Sequentia (Tuba mirum).wav
    Peak level 80.6 % Extraction speed 2.2 X Track quality 100.0 % Test CRC 1683856F Copy CRC 1683856F Accurately ripped (confidence 3) [F2B89705] (AR v1) Copy OK
    Track 5
    Filename H:\EAC NEW Rips\05 - Mozart, Requiem KV 626 - III. Sequentia (Rex tremendae).wav
    Peak level 88.2 % Extraction speed 1.8 X Track quality 100.0 % Test CRC 4ECD6903 Copy CRC 4ECD6903 Accurately ripped (confidence 3) [9AE9645B] (AR v1) Copy OK
    Track 6
    Filename H:\EAC NEW Rips\06 - Mozart, Requiem KV 626 - III. Sequentia (Recordare).wav
    Peak level 81.9 % Extraction speed 2.2 X Track quality 99.9 % Test CRC 55B89178 Copy CRC 55B89178 Accurately ripped (confidence 3) [67581A0C] (AR v1) Copy OK
    Track 7
    Filename H:\EAC NEW Rips\07 - Mozart, Requiem KV 626 - III. Sequentia (Confutatis).wav
    Peak level 79.9 % Extraction speed 2.3 X Track quality 100.0 % Test CRC C0D9E236 Copy CRC C0D9E236 Accurately ripped (confidence 3) [471AE40E] (AR v1) Copy OK
    Track 8
    Filename H:\EAC NEW Rips\08 - Mozart, Requiem KV 626 - III. Sequentia (Lacrimosa).wav
    Peak level 83.3 % Extraction speed 1.9 X Track quality 99.9 % Test CRC 0F6FE75B Copy CRC 0F6FE75B Accurately ripped (confidence 3) [2DCCB125] (AR v1) Copy OK
    Track 9
    Filename H:\EAC NEW Rips\09 - Mozart, Requiem KV 626 - IV. Offertorium (Domine Jesu).wav
    Peak level 91.6 % Extraction speed 2.7 X Track quality 100.0 % Test CRC B4E55A62 Copy CRC B4E55A62 Accurately ripped (confidence 3) [B3E98FC4] (AR v1) Copy OK
    Track 10
    Filename H:\EAC NEW Rips\10 - Mozart, Requiem KV 626 - IV. Offertorium (Hostias).wav
    Peak level 90.0 % Extraction speed 2.9 X Track quality 100.0 % Test CRC D31E4405 Copy CRC D31E4405 Accurately ripped (confidence 3) [49A6DFF3] (AR v1) Copy OK
    Track 11
    Filename H:\EAC NEW Rips\11 - Mozart, Requiem KV 626 - V. Sanctus.wav
    Pre-gap length 0:00:14.84
    Peak level 92.5 % Extraction speed 2.6 X Track quality 100.0 % Test CRC 457A9B38 Copy CRC 457A9B38 Accurately ripped (confidence 3) [048EFFFD] (AR v1) Copy OK
    Track 12
    Filename H:\EAC NEW Rips\12 - Mozart, Requiem KV 626 - VI. Benedictus.wav
    Pre-gap length 0:00:09.90
    Peak level 90.4 % Extraction speed 3.2 X Track quality 100.0 % Test CRC 6F70D836 Copy CRC 6F70D836 Accurately ripped (confidence 3) [AB51B90B] (AR v1) Copy OK
    Track 13
    Filename H:\EAC NEW Rips\13 - Mozart, Requiem KV 626 - VII. Agnus Dei.wav
    Pre-gap length 0:00:13.46
    Peak level 92.8 % Extraction speed 3.0 X Track quality 100.0 % Test CRC 447FDC7F Copy CRC 447FDC7F Accurately ripped (confidence 3) [ACE45F3C] (AR v1) Copy OK
    Track 14
    Filename H:\EAC NEW Rips\14 - Mozart, Requiem KV 626 - VIII. Communio - Lux Aeterna.wav
    Peak level 92.0 % Extraction speed 3.4 X Track quality 100.0 % Test CRC D6789411 Copy CRC D6789411 Accurately ripped (confidence 3) [973C2246] (AR v1) Copy OK
    Track 15
    Filename H:\EAC NEW Rips\15 - Benjamin Britten in conversation - I. Opera.wav
    Pre-gap length 0:00:11.93
    Peak level 59.4 % Extraction speed 3.7 X Track quality 100.0 % Test CRC E1E5D04F Copy CRC E1E5D04F Accurately ripped (confidence 3) [A1CE296D] (AR v1) Copy OK
    Track 16
    Filename H:\EAC NEW Rips\16 - Benjamin Britten in conversation - II. Composing.wav
    Peak level 61.4 % Extraction speed 3.5 X Track quality 100.0 % Test CRC 7B39B29C Copy CRC 7B39B29C Accurately ripped (confidence 3) [529A07E7] (AR v1) Copy OK
    Track 17
    Filename H:\EAC NEW Rips\17 - Benjamin Britten in conversation - III. Dreams.wav
    Peak level 59.9 % Extraction speed 2.6 X Track quality 99.9 % Test CRC 77F5D908 Copy CRC 77F5D908 Accurately ripped (confidence 3) [3FFC8E8A] (AR v1) Copy OK
    Track 18
    Filename H:\EAC NEW Rips\18 - Benjamin Britten in conversation - IV. Teaching.wav
    Peak level 56.2 % Extraction speed 3.9 X Track quality 100.0 % Test CRC 0F723F18 Copy CRC 0F723F18 Accurately ripped (confidence 3) [68039601] (AR v1) Copy OK
    Track 19
    Filename H:\EAC NEW Rips\19 - Benjamin Britten in conversation - V. Map-reading.wav
    Peak level 46.2 % Extraction speed 4.0 X Track quality 100.0 % Test CRC D58E150F Copy CRC D58E150F Accurately ripped (confidence 3) [5F7ECC43] (AR v1) Copy OK
    All tracks accurately ripped
    No errors occurred
    End of status report
    ---- CUETools DB Plugin V2.1.3
    [CTDB TOCID: 3jHDjyyLLzLJdp4if9JYWlB6h3E-] found, Submit result: 3jHDjyyLLzLJdp4if9JYWlB6h3E- has been confirmed[8f24a2b7] (1/1) Accurately ripped
    ==== Log checksum A0C2A6BEE7051E9A729AFC94AA259E521C10630A92CEB04D91FA476FB33CC43E ====

    auCDtect Task Manager log / Отчёт auCDtect Task Manager

    -----------------------
    DON'T MODIFY THIS FILE
    -----------------------
    PERFORMER: auCDtect Task Manager, ver. 1.5.1RC3 build 1.5.1.4Copyright (c) 2008-2010 y-soft. All rights reserved
    ANALYZER: auCDtect: CD records authenticity detector, version 0.8.2Copyright (c) 2004 Oleg Berngardt. All rights reserved.Copyright (c) 2004 Alexander Djourik. All rights reserved.
    FILE: 06 - Requiem, KV 626 - Recordare.flac Size: 16124690 Hash: CE562DBE7FCFC9AA0B3A6E110221CF99 Accuracy: -m0 Conclusion: CDDA 100% Signature: 8153F239A7190A5BE564C068B11180B976660A2EFILE: 05 - Requiem, KV 626 - Rex tremendae.flac Size: 4020698 Hash: B5D9EE0D48520BC3B4234FCD60275368 Accuracy: -m0 Conclusion: CDDA 99% Signature: CD1D59598385379988712510CF08DF4668320880FILE: 04 - Requiem, KV 626 - Tuba mirum.flac Size: 9688939 Hash: 2D1706C80CED9441565EA1F7F0962B91 Accuracy: -m0 Conclusion: CDDA 86% Signature: 32FF6BCEE1762F2602D3EB4211BC0809C57EF747FILE: 03 - Requiem, KV 626 - III. Sequentia. Dies irae.flac Size: 5751521 Hash: 71DF75DD859DA1A33C00ECB38112960B Accuracy: -m0 Conclusion: CDDA 99% Signature: AF1F4917AED79D437C9EFBB9C82BFB4596A963D1FILE: 02 - Requiem, KV 626 - II. Kyrie.flac Size: 8243811 Hash: FA843C7E0031785BA48607225B652B45 Accuracy: -m0 Conclusion: CDDA 100% Signature: 5C2A801CE2EFE8C9D0947CD24DCD8E00F0503CBCFILE: 01 - Requiem, KV 626 - I. Introitus. Requiem aeternam.flac Size: 14633791 Hash: 64B858187D39A8BC8C63681FF9569061 Accuracy: -m0 Conclusion: CDDA 76% Signature: 834764C26115038D22B7E45DE8EF05D775D06FDDFILE: 19 - Benjamin Britten in conversation - V. Map-reading.flac Size: 11964854 Hash: F62C2326C14482C7F25DDEE569248546 Accuracy: -m0 Conclusion: CDDA 100% Signature: 886B547677540337ED96D056600DE532DDF39DB4FILE: 18 - Benjamin Britten in conversation - IV. Teaching.flac Size: 13249772 Hash: 0C5E05CD58153E48865E2C2964FB9446 Accuracy: -m0 Conclusion: CDDA 100% Signature: B9D1496B33C34C23C3F584352F9F6223A412F7C1FILE: 17 - Benjamin Britten in conversation - III. Dreams.flac Size: 9053730 Hash: 5CA797681F3EC7D1C74E17E6D20C8AE5 Accuracy: -m0 Conclusion: CDDA 100% Signature: 493B57AAE26AD7174E9B3B8E5E03B42E86BFBFABFILE: 16 - Benjamin Britten in conversation - II. Composing.flac Size: 9528237 Hash: 4665E6C201682CEC64D6B7FC24A64356 Accuracy: -m0 Conclusion: CDDA 99% Signature: FCC0221424CD50757617EAEE6E0E515D5A3E0AA4FILE: 15 - Benjamin Britten in conversation - I. Opera.flac Size: 18931517 Hash: E63F6A5A92BC8E6039074416FF922FA8 Accuracy: -m0 Conclusion: CDDA 100% Signature: 5E779B265D50DCD10080F196AE55569B72C9A9B0FILE: 14 - Requiem, KV 626 - VIII. Communio. Lux aeterna.flac Size: 18245503 Hash: CB2C803EA968D970B66A3A60D78D00C4 Accuracy: -m0 Conclusion: CDDA 100% Signature: 0A66A2FFD125151139D9BDE70D72789050E58EFEFILE: 13 - Requiem, KV 626 - VII. Agnus Dei.flac Size: 8301371 Hash: 4BAA04D90B0E758FE7EFE56C7D0EDDBC Accuracy: -m0 Conclusion: CDDA 100% Signature: E24AB70EE626CFA0842ED7B4BCF14CF1AC9C7F20FILE: 12 - Requiem, KV 626 - VI. Benedictus.flac Size: 17647463 Hash: B6E99F16C996E0DCE5E5E86F321E653A Accuracy: -m0 Conclusion: CDDA 100% Signature: 6D223ED44B29E36F080912C400598A11D383E397FILE: 11 - Requiem, KV 626 - V. Sanctus.flac Size: 6019330 Hash: EB83066A3010424FDF8E4FBABCA70D4A Accuracy: -m0 Conclusion: CDDA 99% Signature: 7DAFEB73944A548282C9AD20E756FE1AC730E215FILE: 10 - Requiem, KV 626 - Hostias.flac Size: 12175088 Hash: C21A8C73A7902A9460974664C42AA0D6 Accuracy: -m0 Conclusion: CDDA 100% Signature: 7313102BE31EC5340A89BC685F68311A28B9B042FILE: 09 - Requiem, KV 626 - IV. Offertorium. Domine Jesu.flac Size: 10838057 Hash: 7252EC34B18C66F636B32BC05F268381 Accuracy: -m0 Conclusion: CDDA 100% Signature: 7C648F63B7F6D7E2EF3AFC1CDCD455D4B93C5ED3FILE: 08 - Requiem, KV 626 - Lacrimosa.flac Size: 8224324 Hash: 4480D9AE3EA85B416D4B49CCD1C84F71 Accuracy: -m0 Conclusion: CDDA 100% Signature: E9AF9691E01C9FBFB74C6BA3E5B92C4D366F9326FILE: 07 - Requiem, KV 626 - Confutatis.flac Size: 6431389 Hash: 25F805780AEFD6DF0F8BBF40E18F9443 Accuracy: -m0 Conclusion: CDDA 94% Signature: 168AF2D866A71AE46965058D7257B8E6051E1C73

    CUETools log / Отчёт CUETools

    [CUETools log; Date: 28.11.2013 07:17:06; Version: 2.1.4][AccurateRip ID: 002eb5dc-029e3492-3211f113] found.Track [ CRC | V2 ] Status 01 [822e9e4b|c4844056] (3+3/6) Accurately ripped 02 [ace44a9e|a4693acb] (3+3/6) Accurately ripped 03 [5b6bdf44|daa6bc8a] (3+3/6) Accurately ripped 04 [f2b89705|b6c6a1fc] (3+3/6) Accurately ripped 05 [9ae9645b|ae6c3dcf] (3+3/6) Accurately ripped 06 [67581a0c|f1a5e5f6] (3+3/6) Accurately ripped 07 [471ae40e|c954cb93] (3+3/6) Accurately ripped 08 [2dccb125|a44cd93f] (3+3/6) Accurately ripped 09 [b3e98fc4|c87ef9a7] (3+3/6) Accurately ripped 10 [49a6dff3|1bdccd7e] (3+3/6) Accurately ripped 11 [048efffd|b30c1873] (3+3/6) Accurately ripped 12 [ab51b90b|fbed43c6] (3+3/6) Accurately ripped 13 [ace45f3c|9a508ceb] (3+3/6) Accurately ripped 14 [973c2246|a0414ec1] (3+3/6) Accurately ripped 15 [a1ce296d|854c206c] (3+3/6) Accurately ripped 16 [529a07e7|b7d954c1] (3+3/6) Accurately ripped 17 [3ffc8e8a|b2c6deea] (3+3/6) Accurately ripped 18 [68039601|5e5a2692] (3+3/6) Accurately ripped 19 [5f7ecc43|0e29c44e] (3+3/6) Accurately ripped
    Track Peak [ CRC32 ] [W/O NULL] [ LOG ] -- 92,8 [B54A51D5] [5DD87850] 01 90,2 [7C872955] [5681B12B] CRC32 02 89,2 [EE979980] [DF0439F6] CRC32 03 90,4 [0B77D791] [545CA4F3] CRC32 04 80,6 [1683856F] [11DE2A02] CRC32 05 88,2 [4ECD6903] [A623BC3C] CRC32 06 81,9 [55B89178] [0203830D] CRC32 07 79,9 [C0D9E236] [5E660B22] CRC32 08 83,3 [0F6FE75B] [5D7BF61F] CRC32 09 91,6 [B4E55A62] [49FAADDA] CRC32 10 90,0 [D31E4405] [977233E9] CRC32 11 92,5 [457A9B38] [D9F0F969] CRC32 12 90,4 [6F70D836] [64F1F4AB] CRC32 13 92,8 [447FDC7F] [96AC0EEC] CRC32 14 92,0 [D6789411] [035295FA] CRC32 15 59,4 [E1E5D04F] [074F2496] CRC32 16 61,4 [7B39B29C] [42C1927B] CRC32 17 59,9 [77F5D908] [89EE8664] CRC32 18 56,2 [0F723F18] [226B5744] CRC32 19 46,2 [D58E150F] [668DC89A] CRC32

    CUE sheet

    TITLE "Wolfgang Amadeus Mozart: Requiem"PERFORMER "Benjamin Britten"REM GENRE ClassicalREM DISCID 3211F113REM COMMENT "ExactAudioCopy v1.0b3"FILE "01 - Requiem, KV 626 - I. Introitus. Requiem aeternam.flac" WAVE TRACK 01 AUDIO TITLE "Requiem, KV 626: I. Introitus: Requiem aeternam" PERFORMER "Heather Harper, Aldeburgh Festival Chorus, English Chamber Orchestra & Benjamin Britten" REM DATE 1971 INDEX 01 00:00:00FILE "02 - Requiem, KV 626 - II. Kyrie.flac" WAVE TRACK 02 AUDIO TITLE "Requiem, KV 626: II. Kyrie" PERFORMER "Aldeburgh Festival Chorus, English Chamber Orchestra & Benjamin Britten" REM DATE 1971 INDEX 01 00:00:00FILE "03 - Requiem, KV 626 - III. Sequentia. Dies irae.flac" WAVE TRACK 03 AUDIO TITLE "Requiem, KV 626: III. Sequentia: Dies irae" PERFORMER "Aldeburgh Festival Chorus, English Chamber Orchestra & Benjamin Britten" REM DATE 1971 INDEX 01 00:00:00FILE "04 - Requiem, KV 626 - Tuba mirum.flac" WAVE TRACK 04 AUDIO TITLE "Requiem, KV 626: Tuba mirum" PERFORMER "Heather Harper, Alfreda Hodgson, Peter Pears, John Shirley-Quirk, English Chamber Orchestra & Benjamin Britten" REM DATE 1971 INDEX 01 00:00:00FILE "05 - Requiem, KV 626 - Rex tremendae.flac" WAVE TRACK 05 AUDIO TITLE "Requiem, KV 626: Rex tremendae" PERFORMER "Aldeburgh Festival Chorus, English Chamber Orchestra & Benjamin Britten" REM DATE 1971 INDEX 01 00:00:00FILE "06 - Requiem, KV 626 - Recordare.flac" WAVE TRACK 06 AUDIO TITLE "Requiem, KV 626: Recordare" PERFORMER "Heather Harper, Alfreda Hodgson, Peter Pears, John Shirley-Quirk, English Chamber Orchestra & Benjamin Britten" REM DATE 1971 INDEX 01 00:00:00FILE "07 - Requiem, KV 626 - Confutatis.flac" WAVE TRACK 07 AUDIO TITLE "Requiem, KV 626: Confutatis" PERFORMER "Aldeburgh Festival Chorus, English Chamber Orchestra & Benjamin Britten" REM DATE 1971 INDEX 01 00:00:00FILE "08 - Requiem, KV 626 - Lacrimosa.flac" WAVE TRACK 08 AUDIO TITLE "Requiem, KV 626: Lacrimosa" PERFORMER "Aldeburgh Festival Chorus, English Chamber Orchestra & Benjamin Britten" REM DATE 1971 INDEX 01 00:00:00FILE "09 - Requiem, KV 626 - IV. Offertorium. Domine Jesu.flac" WAVE TRACK 09 AUDIO TITLE "Requiem, KV 626: IV. Offertorium: Domine Jesu" PERFORMER "Heather Harper, Alfreda Hodgson, Peter Pears, John Shirley-Quirk, Aldeburgh Festival Chorus, English Chamber Orchestra & Benjamin Britten" REM DATE 1971 INDEX 01 00:00:00FILE "10 - Requiem, KV 626 - Hostias.flac" WAVE TRACK 10 AUDIO TITLE "Requiem, KV 626: Hostias" PERFORMER "Aldeburgh Festival Chorus, English Chamber Orchestra & Benjamin Britten" REM DATE 1971 INDEX 01 00:00:00 TRACK 11 AUDIO TITLE "Requiem, KV 626: V. Sanctus" PERFORMER "Aldeburgh Festival Chorus, English Chamber Orchestra & Benjamin Britten" REM DATE 1971 INDEX 00 03:52:32FILE "11 - Requiem, KV 626 - V. Sanctus.flac" WAVE INDEX 01 00:00:00 TRACK 12 AUDIO TITLE "Requiem, KV 626: VI. Benedictus" PERFORMER "Heather Harper, Alfreda Hodgson, Peter Pears, John Shirley-Quirk, Aldeburgh Festival Chorus, English Chamber Orchestra & Benjamin Britten" REM DATE 1971 INDEX 00 01:47:52FILE "12 - Requiem, KV 626 - VI. Benedictus.flac" WAVE INDEX 01 00:00:00 TRACK 13 AUDIO TITLE "Requiem, KV 626: VII. Agnus Dei" PERFORMER "Aldeburgh Festival Chorus, English Chamber Orchestra & Benjamin Britten" REM DATE 1971 INDEX 00 05:47:47FILE "13 - Requiem, KV 626 - VII. Agnus Dei.flac" WAVE INDEX 01 00:00:00FILE "14 - Requiem, KV 626 - VIII. Communio. Lux aeterna.flac" WAVE TRACK 14 AUDIO TITLE "Requiem, KV 626: VIII. Communio: Lux aeterna" PERFORMER "Heather Harper, Aldeburgh Festival Chorus, English Chamber Orchestra & Benjamin Britten" REM DATE 1971 INDEX 01 00:00:00 TRACK 15 AUDIO TITLE "Benjamin Britten in conversation with Donald Mitchell: I. Opera" PERFORMER "Benjamin Britten" REM DATE 1969 INDEX 00 06:00:55FILE "15 - Benjamin Britten in conversation - I. Opera.flac" WAVE INDEX 01 00:00:00FILE "16 - Benjamin Britten in conversation - II. Composing.flac" WAVE TRACK 16 AUDIO TITLE "Benjamin Britten in conversation with Donald Mitchell: II. Composing" PERFORMER "Benjamin Britten" REM DATE 1969 INDEX 01 00:00:00FILE "17 - Benjamin Britten in conversation - III. Dreams.flac" WAVE TRACK 17 AUDIO TITLE "Benjamin Britten in conversation with Donald Mitchell: III. Dreams" PERFORMER "Benjamin Britten" REM DATE 1969 INDEX 01 00:00:00FILE "18 - Benjamin Britten in conversation - IV. Teaching.flac" WAVE TRACK 18 AUDIO TITLE "Benjamin Britten in conversation with Donald Mitchell: IV. Teaching" PERFORMER "Benjamin Britten" REM DATE 1969 INDEX 01 00:00:00FILE "19 - Benjamin Britten in conversation - V. Map-reading.flac" WAVE TRACK 19 AUDIO TITLE "Benjamin Britten in conversation with Donald Mitchell: V. Map-reading" PERFORMER "Benjamin Britten" REM DATE 1969 INDEX 01 00:00:00
    -
    Wolfgang Amadeus Mozart — каталог раздач на rutracker.org Все мои раздачи / All my releases
    [teatrix.ru].t8011.torrent 
    Торрент: Зарегистрирован [ 2015-10-14 02:49 ] · 149EF307B2EE75F588DC0219264CF8C7334CDF0B

    Скачать .torrent

    Скачать

    20 KB

    Статус: проверено
    Скачан: 0 раз
    Размер: 219 MB
    terms.php



  • Быстрый ответ

    Имя:

          
    Для отправки сообщений необходимо включить JavaScript
    Показать сообщения:    

    Текущее время: 06-Дек 15:12

    Часовой пояс: UTC + 3


    Вы можете начинать темы
    Вы можете отвечать на сообщения
    Вы не можете редактировать свои сообщения
    Вы не можете удалять свои сообщения
    Вы не можете голосовать в опросах
    Вы не можете прикреплять файлы к сообщениям
    Вы можете скачивать файлы