(Classical, contemporary) In the Heart of Things - Francis Pott: Choral Music - Grace Davidson, Commotio, Matthew Berry - 2012, FLAC (image+.cue) lossless


Статистика раздачи [Обновить пиров]
Размер:  251 MB   |    Зарегистрирован:  1 год 1 месяц   |    Скачан:  0 раз

Полного источника не было: Никогда

 
   
 
 
 

[Цитировать]

In the Heart of Things - Francis Pott: Choral Music - Grace Davidson, Commotio, Matthew Berry
Жанр: Classical, contemporary
Год издания диска: 2012
Издатель (лейбл): Naxos
Номер по каталогу: 8.572739
Дата записи: 2011
Аудиокодек: FLAC
Тип рипа: image+.cue
Битрейт аудио: lossless
Продолжительность: 66:58
Источник: собственный рип
Наличие сканов в содержимом раздачи: да
Треклист:
Francis Pott (b.1957)
[1] Mass for Eight Parts (2011) - Kyrie eleison
[2] Mass for Eight Parts - Gloria in excelsis Deo
[3] Mary's Carol (2008)
[4] A Hymn to the Virgin (2002)
[5] I Sing of a Maiden (2000)
[6] Mass for Eight Parts - Sanctus
[7] Mass for Eight Parts - Benedictus
[8] Ubi caritas (2002)
[9] Balulalow (2009)
[10] Lament (2011)
[11] Mass for Eight Parts - Agnus Dei
Исполнители:
Grace Davidson soprano solo ([7],[9])
Commotio
Matthew Berry

Лог создания рипа

Exact Audio Copy V1.0 beta 3 from 29. August 2011
EAC extraction logfile from 17. November 2013, 20:30
Commotio, Matthew Berry / Pott - In the Heart of Things
Used drive : HL-DT-STDVDRAM GSA-4083N Adapter: 1 ID: 0
Read mode : SecureUtilize accurate stream : YesDefeat audio cache : YesMake use of C2 pointers : No
Read offset correction : 667Overread into Lead-In and Lead-Out : NoFill up missing offset samples with silence : YesDelete leading and trailing silent blocks : NoNull samples used in CRC calculations : YesUsed interface : Native Win32 interface for Win NT & 2000
Used output format : User Defined EncoderSelected bitrate : 896 kBit/sQuality : HighAdd ID3 tag : NoCommand line compressor : C:\Program Files\Exact Audio Copy\Flac\flac.exeAdditional command line options : -V -8 %source%
TOC of the extracted CD
Track | Start | Length | Start sector | End sector --------------------------------------------------------- 1 | 0:00.00 | 6:55.38 | 0 | 31162 2 | 6:55.38 | 12:01.11 | 31163 | 85248 3 | 18:56.49 | 4:49.02 | 85249 | 106925 4 | 23:45.51 | 4:54.50 | 106926 | 129025 5 | 28:40.26 | 4:12.27 | 129026 | 147952 6 | 32:52.53 | 4:36.62 | 147953 | 168714 7 | 37:29.40 | 6:18.43 | 168715 | 197107 8 | 43:48.08 | 3:13.18 | 197108 | 211600 9 | 47:01.26 | 2:55.00 | 211601 | 224725 10 | 49:56.26 | 4:23.20 | 224726 | 244470 11 | 54:19.46 | 12:36.29 | 244471 | 301199
Range status and errors
Selected range
Filename J:\New Music\Pott - In the Heart of Things\Pott - In the Heart of Things.wav
Peak level 95.8 % Extraction speed 2.8 X Range quality 100.0 % Test CRC 0E33587F Copy CRC 0E33587F Copy OK
No errors occurred
End of status report
==== Log checksum 16685924DAF57BF1DAE692A272AF673F5CE962BA49C1F00927EDF11FE0D73EED ====
[teatrix.ru].t8012.torrent 
Торрент: Зарегистрирован [ 2015-10-14 02:49 ] · 18135BC700C176F0AA3776AD38AB4034B99004CD

Скачать .torrent

Скачать

40 KB

Статус: проверено
Скачан: 0 раз
Размер: 251 MB
terms.php



Быстрый ответ

Имя:

      
Для отправки сообщений необходимо включить JavaScript
Показать сообщения:    

Текущее время: 09-Дек 01:09

Часовой пояс: UTC + 3


Вы можете начинать темы
Вы можете отвечать на сообщения
Вы не можете редактировать свои сообщения
Вы не можете удалять свои сообщения
Вы не можете голосовать в опросах
Вы не можете прикреплять файлы к сообщениям
Вы можете скачивать файлы