(Classical, contemporary) Jonathan Dove - 'The Passing of the Year' and other choral works - Christopher Cromar, Convivium Singers, Neil Ferris - 2012, FLAC (image+.cue) lossless


Статистика раздачи [Обновить пиров]
Размер:  240 MB   |    Зарегистрирован:  1 год 1 месяц   |    Скачан:  0 раз

Полного источника не было: Никогда

 
   
 
 
 

[Цитировать]

Jonathan Dove - 'The Passing of the Year' and other choral works - Christopher Cromar, Convivium Singers, Neil Ferris
Жанр: Classical, contemporary
Год издания диска: 2012
Издатель (лейбл): Naxos
Номер по каталогу: 8.572733
Дата записи: 2011
Аудиокодек: FLAC
Тип рипа: image+.cue
Битрейт аудио: lossless
Продолжительность: 69:23
Источник: собственный рип
Наличие сканов в содержимом раздачи: да
Треклист:
Jonathan Dove (b. 1959)
[1]-[7] The Passing of the Year (2000)* 24:10
Song cycle for double chorus and piano
[8] In beauty may I walk (2001) 4:16
[9] My love is mine (1998) 4:01
[10] Who killed Cock Robin? (1996) 9:17
[11]-[13] It sounded as if the streets were running (2006) 10:36
Three songs for upper voice choir on poems by Emily Dickinson
[14] I am the day (1999) 6:51
[15] Wellcome, all Wonders in one sight! (1999) 4:53
[16] The Three Kings (2001) 5:19
Исполнители:
Christopher Cromar piano*
Convivium Singers
Neil Ferris

Лог создания рипа

Exact Audio Copy V1.0 beta 3 from 29. August 2011
EAC extraction logfile from 14. October 2013, 15:18
Convivium Singers, Neil Ferris / Dove - The Passing of the Year
Used drive : HL-DT-STDVDRRW GWA-4164B Adapter: 5 ID: 0
Read mode : SecureUtilize accurate stream : YesDefeat audio cache : YesMake use of C2 pointers : No
Read offset correction : 102Overread into Lead-In and Lead-Out : NoFill up missing offset samples with silence : YesDelete leading and trailing silent blocks : NoNull samples used in CRC calculations : YesUsed interface : Native Win32 interface for Win NT & 2000
Used output format : User Defined EncoderSelected bitrate : 896 kBit/sQuality : HighAdd ID3 tag : NoCommand line compressor : C:\Program Files\Exact Audio Copy\FLAC\FLAC.EXEAdditional command line options : -V -8 %source%
TOC of the extracted CD
Track | Start | Length | Start sector | End sector --------------------------------------------------------- 1 | 0:00.00 | 1:31.20 | 0 | 6844 2 | 1:31.20 | 3:15.41 | 6845 | 21510 3 | 4:46.61 | 2:39.37 | 21511 | 33472 4 | 7:26.23 | 3:11.10 | 33473 | 47807 5 | 10:37.33 | 2:13.00 | 47808 | 57782 6 | 12:50.33 | 6:04.05 | 57783 | 85087 7 | 18:54.38 | 5:19.17 | 85088 | 109029 8 | 24:13.55 | 4:12.45 | 109030 | 127974 9 | 28:26.25 | 4:04.13 | 127975 | 146287 10 | 32:30.38 | 9:13.50 | 146288 | 187812 11 | 41:44.13 | 4:02.71 | 187813 | 206033 12 | 45:47.09 | 3:24.11 | 206034 | 221344 13 | 49:11.20 | 3:09.58 | 221345 | 235577 14 | 52:21.03 | 6:51.44 | 235578 | 266446 15 | 59:12.47 | 4:52.16 | 266447 | 288362 16 | 64:04.63 | 5:16.12 | 288363 | 312074
Range status and errors
Selected range
Filename D:\temp\Music\Dove - The Passing of the Year\Dove - The Passing of the Year.wav
Peak level 99.8 % Extraction speed 4.1 X Range quality 100.0 % Test CRC 0E49F492 Copy CRC 0E49F492 Copy OK
No errors occurred
AccurateRip summary
Track 1 not present in databaseTrack 2 not present in databaseTrack 3 not present in databaseTrack 4 not present in databaseTrack 5 not present in databaseTrack 6 not present in databaseTrack 7 not present in databaseTrack 8 not present in databaseTrack 9 not present in databaseTrack 10 not present in databaseTrack 11 not present in databaseTrack 12 not present in databaseTrack 13 not present in databaseTrack 14 not present in databaseTrack 15 not present in databaseTrack 16 not present in database
None of the tracks are present in the AccurateRip database
End of status report
==== Log checksum 05114AA6DC3582901265FE037F342D4D6BCE2F4E3B2024A2CC69C593A8E3D52F ====
[teatrix.ru].t8013.torrent 
Торрент: Зарегистрирован [ 2015-10-14 02:49 ] · 6CF9375DE60E2BE835EC43E82327EF63DB20A5C5

Скачать .torrent

Скачать

39 KB

Статус: проверено
Скачан: 0 раз
Размер: 240 MB
terms.php



Быстрый ответ

Имя:

      
Для отправки сообщений необходимо включить JavaScript
Показать сообщения:    

Текущее время: 05-Дек 07:31

Часовой пояс: UTC + 3


Вы можете начинать темы
Вы можете отвечать на сообщения
Вы не можете редактировать свои сообщения
Вы не можете удалять свои сообщения
Вы не можете голосовать в опросах
Вы не можете прикреплять файлы к сообщениям
Вы можете скачивать файлы