(Classical, Choral) Herbert Howells - Requiem / Stephen Layton & Cambridge Trinity College Choir - 2012, FLAC (tracks+.cue) lossless


Статистика раздачи [Обновить пиров]
Размер:  271 MB   |    Зарегистрирован:  1 год 1 месяц   |    Скачан:  0 раз

Полного источника не было: Никогда

 
   
 
 
 

[Цитировать]

Herbert Howells - Requiem / Stephen Layton & Cambridge Trinity College Choir
Жанр: Classical, Choral
Страна-производитель диска: England
Год издания диска: 2012
Издатель (лейбл): Hyperion
Номер по каталогу: 67914
Дата записи: July 1, 2011 - July 6, 2011
Аудиокодек: FLAC
Тип рипа: tracks+.cue
Битрейт аудио: lossless
Продолжительность: 01:04:00
Источник: скачано с
сайт-источник/ник/другое: Thanks to the original releaser
Наличие сканов в содержимом раздачи: да
Треклист:
1. A Hymn for St. Cecilia 3:07
2. Salve regina 4:59
Gloucester Service
3. Magnificat 6:25
4. Nunc dimittis 4:33
5. Take him, earth, for cherishing 9:00
St. Paul's Service
6. Magnificat 6:40
7. Nunc dimittis 6:40
Requiem
8. Salvator mundi 2:38
9. Psalm 23 2:42
10. Requiem aeternam I 3:45
11. Psalm 121 3:04
12. Requiem aeternam II 3:37
13. I heard a voice from heaven 4:29
14. Michael (All my hope on God is founded) 3:28
Исполнители:
Conductor: Stephen Layton
Orchestra/Ensemble: Cambridge Trinity College Choir
Performer: Jeremy Cole (Organ) - tracks 3, 4, 14
Performer: Simon Bland (Organ) - tracks 1, 6, 7

Лог создания рипа

Exact Audio Copy V1.0 beta 3 from 29. August 2011
EAC extraction logfile from 28. November 2012, 18:08
The Choir of Trinity College Cambridge / Requiem
Used drive : ATAPI iHAS324 B Adapter: 1 ID: 0
Read mode : SecureUtilize accurate stream : YesDefeat audio cache : YesMake use of C2 pointers : No
Read offset correction : 6Overread into Lead-In and Lead-Out : NoFill up missing offset samples with silence : YesDelete leading and trailing silent blocks : NoNull samples used in CRC calculations : YesUsed interface : Native Win32 interface for Win NT & 2000Gap handling : Appended to previous track
Used output format : User Defined EncoderSelected bitrate : 1024 kBit/sQuality : HighAdd ID3 tag : NoCommand line compressor : C:\Program Files\FLAC\flac.exeAdditional command line options : -8 -V -T "ARTIST=%artist%" -T "TITLE=%title%" -T "ALBUM=%albumtitle%" -T "DATE=%year%" -T "TRACKNUMBER=%tracknr%" -T "GENRE=%genre%" -T "PERFORMER=%albuminterpret%" -T "COMPOSER=%composer%" %haslyrics%--tag-from-file=LYRICS="%lyricsfile%"%haslyrics% -T "ALBUMARTIST=%albumartist%" -T "DISCNUMBER=%cdnumber%" -T "TOTALDISCS=%totalcds%" -T "TOTALTRACKS=%numtracks%" -T "COMMENT=%comment%" %source% -o %dest%
TOC of the extracted CD
Track | Start | Length | Start sector | End sector --------------------------------------------------------- 1 | 0:00.00 | 3:07.48 | 0 | 14072 2 | 3:07.48 | 4:59.61 | 14073 | 36558 3 | 8:07.34 | 6:25.58 | 36559 | 65491 4 | 14:33.17 | 4:33.49 | 65492 | 86015 5 | 19:06.66 | 9:00.32 | 86016 | 126547 6 | 28:07.23 | 6:40.71 | 126548 | 156618 7 | 34:48.19 | 5:33.16 | 156619 | 181609 8 | 40:21.35 | 2:38.30 | 181610 | 193489 9 | 42:59.65 | 2:42.24 | 193490 | 205663 10 | 45:42.14 | 3:45.23 | 205664 | 222561 11 | 49:27.37 | 3:04.48 | 222562 | 236409 12 | 52:32.10 | 3:37.38 | 236410 | 252722 13 | 56:09.48 | 4:29.50 | 252723 | 272947 14 | 60:39.23 | 3:28.33 | 272948 | 288580
Track 1
Filename C:\01 - Herbert Howells - A Hymn for St. Cecilia.wav
Pre-gap length 0:00:02.00
Peak level 58.3 % Extraction speed 1.7 X Track quality 100.0 % Test CRC 0EDBFE4D Copy CRC 0EDBFE4D Track not present in AccurateRip database Copy OK
Track 2
Filename C:\02 - Herbert Howells - Salve regina.wav
Peak level 71.2 % Extraction speed 2.0 X Track quality 100.0 % Test CRC 306D2FEE Copy CRC 306D2FEE Track not present in AccurateRip database Copy OK
Track 3
Filename C:\03 - Herbert Howells - Gloucester Service- Magnificat.wav
Peak level 74.0 % Extraction speed 1.9 X Track quality 99.9 % Test CRC D5415CD9 Copy CRC D5415CD9 Track not present in AccurateRip database Copy OK
Track 4
Filename C:\04 - Herbert Howells - Gloucester Service- Nunc dimittis.wav
Peak level 82.7 % Extraction speed 2.5 X Track quality 100.0 % Test CRC B7E88221 Copy CRC B7E88221 Track not present in AccurateRip database Copy OK
Track 5
Filename C:\05 - Herbert Howells - Take him, earth, for cherishing.wav
Peak level 88.4 % Extraction speed 2.9 X Track quality 100.0 % Test CRC 3AC28569 Copy CRC 3AC28569 Track not present in AccurateRip database Copy OK
Track 6
Filename C:\06 - Herbert Howells - St. Paul's Service- Magnificat.wav
Peak level 97.6 % Extraction speed 3.1 X Track quality 100.0 % Test CRC 1D9A5A8D Copy CRC 1D9A5A8D Track not present in AccurateRip database Copy OK
Track 7
Filename C:\07 - Herbert Howells - St. Paul's Service- Nunc dimittis.wav
Peak level 87.0 % Extraction speed 3.2 X Track quality 100.0 % Test CRC 5D3C63BE Copy CRC 5D3C63BE Track not present in AccurateRip database Copy OK
Track 8
Filename C:\08 - Herbert Howells - Requiem- Salvator mundi.wav
Peak level 67.1 % Extraction speed 3.0 X Track quality 100.0 % Test CRC 51EF9EDC Copy CRC 51EF9EDC Track not present in AccurateRip database Copy OK
Track 9
Filename C:\09 - Herbert Howells - Requiem- Psalm 23.wav
Peak level 75.7 % Extraction speed 2.0 X Track quality 99.9 % Test CRC 55E495F0 Copy CRC 55E495F0 Track not present in AccurateRip database Copy OK
Track 10
Filename C:\10 - Herbert Howells - Requiem- Requiem aeternam I.wav
Peak level 21.6 % Extraction speed 3.4 X Track quality 100.0 % Test CRC E26A816A Copy CRC E26A816A Track not present in AccurateRip database Copy OK
Track 11
Filename C:\11 - Herbert Howells - Requiem- Psalm 121.wav
Peak level 76.1 % Extraction speed 3.4 X Track quality 100.0 % Test CRC AB1C9D16 Copy CRC AB1C9D16 Track not present in AccurateRip database Copy OK
Track 12
Filename C:\12 - Herbert Howells - Requiem- Requiem aeternam II.wav
Peak level 86.9 % Extraction speed 3.5 X Track quality 100.0 % Test CRC 6EE6C276 Copy CRC 6EE6C276 Track not present in AccurateRip database Copy OK
Track 13
Filename C:\13 - Herbert Howells - Requiem- I heard a voice from heaven.wav
Peak level 59.9 % Extraction speed 3.7 X Track quality 100.0 % Test CRC 1F3A791B Copy CRC 1F3A791B Track not present in AccurateRip database Copy OK
Track 14
Filename C:\14 - Herbert Howells - Michael- All my hope on God is founded.wav
Peak level 68.3 % Extraction speed 3.6 X Track quality 100.0 % Test CRC 2CA6C1BB Copy CRC 2CA6C1BB Track not present in AccurateRip database Copy OK
None of the tracks are present in the AccurateRip database
No errors occurred
End of status report
---- CUETools DB Plugin V2.1.3
[CTDB TOCID: aK.wg08SGIp82L9NyMyR.mqkrPo-] found, Submit result: aK.wg08SGIp82L9NyMyR.mqkrPo- has been confirmed[109a567c] (2/2) Accurately ripped
==== Log checksum 6BAD9D17CFB2DD267146EDE800550A1DDC41D5BE5381CFA27BAE50DE692A250C ====

Содержание индексной карты (.CUE)

REM GENRE ClassicalREM DATE 2012REM DISCID DD0F070EREM COMMENT "ExactAudioCopy v1.0b3"CATALOG 0034571179148PERFORMER "The Choir of Trinity College Cambridge"TITLE "Requiem"FILE "01 - Herbert Howells - A Hymn for St. Cecilia.wav" WAVE TRACK 01 AUDIO TITLE "A Hymn for St. Cecilia" PERFORMER "Herbert Howells" ISRC GBAJY1291401 INDEX 01 00:00:00FILE "02 - Herbert Howells - Salve regina.wav" WAVE TRACK 02 AUDIO TITLE "Salve regina" PERFORMER "Herbert Howells" ISRC GBAJY1291402 INDEX 01 00:00:00FILE "03 - Herbert Howells - Gloucester Service- Magnificat.wav" WAVE TRACK 03 AUDIO TITLE "Gloucester Service: Magnificat" PERFORMER "Herbert Howells" ISRC GBAJY1291403 INDEX 01 00:00:00FILE "04 - Herbert Howells - Gloucester Service- Nunc dimittis.wav" WAVE TRACK 04 AUDIO TITLE "Gloucester Service: Nunc dimittis" PERFORMER "Herbert Howells" ISRC GBAJY1291404 INDEX 01 00:00:00FILE "05 - Herbert Howells - Take him, earth, for cherishing.wav" WAVE TRACK 05 AUDIO TITLE "Take him, earth, for cherishing" PERFORMER "Herbert Howells" ISRC GBAJY1291405 INDEX 01 00:00:00FILE "06 - Herbert Howells - St. Paul's Service- Magnificat.wav" WAVE TRACK 06 AUDIO TITLE "St. Paul's Service: Magnificat" PERFORMER "Herbert Howells" ISRC GBAJY1291406 INDEX 01 00:00:00FILE "07 - Herbert Howells - St. Paul's Service- Nunc dimittis.wav" WAVE TRACK 07 AUDIO TITLE "St. Paul's Service: Nunc dimittis" PERFORMER "Herbert Howells" ISRC GBAJY1291407 INDEX 01 00:00:00FILE "08 - Herbert Howells - Requiem- Salvator mundi.wav" WAVE TRACK 08 AUDIO TITLE "Requiem: Salvator mundi" PERFORMER "Herbert Howells" ISRC GBAJY1291408 INDEX 01 00:00:00FILE "09 - Herbert Howells - Requiem- Psalm 23.wav" WAVE TRACK 09 AUDIO TITLE "Requiem: Psalm 23" PERFORMER "Herbert Howells" ISRC GBAJY1291409 INDEX 01 00:00:00FILE "10 - Herbert Howells - Requiem- Requiem aeternam I.wav" WAVE TRACK 10 AUDIO TITLE "Requiem: Requiem aeternam I" PERFORMER "Herbert Howells" ISRC GBAJY1291410 INDEX 01 00:00:00FILE "11 - Herbert Howells - Requiem- Psalm 121.wav" WAVE TRACK 11 AUDIO TITLE "Requiem: Psalm 121" PERFORMER "Herbert Howells" ISRC GBAJY1291411 INDEX 01 00:00:00FILE "12 - Herbert Howells - Requiem- Requiem aeternam II.wav" WAVE TRACK 12 AUDIO TITLE "Requiem: Requiem aeternam II" PERFORMER "Herbert Howells" ISRC GBAJY1291412 INDEX 01 00:00:00FILE "13 - Herbert Howells - Requiem- I heard a voice from heaven.wav" WAVE TRACK 13 AUDIO TITLE "Requiem: I heard a voice from heaven" PERFORMER "Herbert Howells" ISRC GBAJY1291413 INDEX 01 00:00:00FILE "14 - Herbert Howells - Michael- All my hope on God is founded.wav" WAVE TRACK 14 AUDIO TITLE "Michael: All my hope on God is founded" PERFORMER "Herbert Howells" ISRC GBAJY1291414 INDEX 01 00:00:00

Dynamic Range Meter

foobar2000 1.2.2 / Dynamic Range Meter 1.1.1log date: 2013-11-11 21:45:11
--------------------------------------------------------------------------------Analyzed: Herbert Howells / Requiem--------------------------------------------------------------------------------
DR Peak RMS Duration Track--------------------------------------------------------------------------------DR12 -4.68 dB -21.97 dB 3:08 01-A Hymn for St. CeciliaDR13 -2.94 dB -22.45 dB 5:00 02-Salve reginaDR16 -2.61 dB -24.83 dB 6:26 03-Gloucester Service: MagnificatDR13 -1.65 dB -21.54 dB 4:34 04-Gloucester Service: Nunc dimittisDR15 -1.07 dB -21.89 dB 9:00 05-Take him, earth, for cherishingDR12 -0.20 dB -19.69 dB 6:41 06-St. Paul's Service: MagnificatDR12 -1.20 dB -19.63 dB 5:33 07-St. Paul's Service: Nunc dimittisDR13 -3.46 dB -23.73 dB 2:38 08-Requiem: Salvator mundiDR16 -2.41 dB -25.62 dB 2:42 09-Requiem: Psalm 23DR11 -13.29 dB -29.94 dB 3:45 10-Requiem: Requiem aeternam IDR14 -2.37 dB -23.94 dB 3:05 11-Requiem: Psalm 121DR13 -1.22 dB -22.30 dB 3:38 12-Requiem: Requiem aeternam IIDR15 -4.44 dB -25.88 dB 4:30 13-Requiem: I heard a voice from heavenDR12 -3.30 dB -20.13 dB 3:28 14-Michael: All my hope on God is founded--------------------------------------------------------------------------------
Number of tracks: 14Official DR value: DR13
Samplerate: 44100 HzChannels: 2Bits per sample: 16Bitrate: 655 kbpsCodec: FLAC================================================================================
Доп. информация: Herbert Norman Howells (17 October 1892 – 23 February 1983)
[teatrix.ru].t8014.torrent 
Торрент: Зарегистрирован [ 2015-10-14 02:49 ] · F27DE6E13A776E750BBE3C9EFF46AC05B7C590A9

Скачать .torrent

Скачать

13 KB

Статус: проверено
Скачан: 0 раз
Размер: 271 MB
terms.php



Быстрый ответ

Имя:

      
Для отправки сообщений необходимо включить JavaScript
Показать сообщения:    

Текущее время: 07-Дек 11:38

Часовой пояс: UTC + 3


Вы можете начинать темы
Вы можете отвечать на сообщения
Вы не можете редактировать свои сообщения
Вы не можете удалять свои сообщения
Вы не можете голосовать в опросах
Вы не можете прикреплять файлы к сообщениям
Вы можете скачивать файлы