(Classical, sacred) A Festival of Psalms (Фестиваль Псалмов): Allegri, Bernstein, Byrd, Parry, Purcell, Wesley - The Choir of the Temple Church, Sally Price, Robert Millett, Greg Morris, James Vivian - 2012, FLAC (image+.cue) lossless


Статистика раздачи [Обновить пиров]
Размер:  301 MB   |    Зарегистрирован:  1 год 1 месяц   |    Скачан:  0 раз

Полного источника не было: Никогда

 
   
 
 
 

[Цитировать]

A Festival of Psalms: Allegri, Bernstein, Byrd, Parry, Purcell, Wesley - The Choir of the Temple Church, Sally Price, Robert Millett, Greg Morris, James Vivian
Жанр: Classical, sacred
Страна-производитель диска: UK
Год издания диска: 2012
Издатель (лейбл): Signum Records
Номер по каталогу: SIGCD279
Дата записи: 2011
Аудиокодек: FLAC
Тип рипа: image+.cue
Битрейт аудио: lossless
Продолжительность: 70:20
Источник: собственный рип
Наличие сканов в содержимом раздачи: да
Треклист:
A Festival of Psalms
Leonard Bernstein (1918-1990)
Chichester Psalms
[1] Psalm 108: 2; Psalm 100
[2] Psalm 23; Psalm 2: 1-4
[3] Psalm 131; Psalm 133: 1
Gregorio Allegri (1582-1652)
[4] Miserere mei, Deus
William Byrd (c.1540-1623)
[5] Teach me, O Lord
Samuel S. Wesley (1810-1876)
[6] Ascribe unto the Lord
Henry Purcell (c.1659-1695)
[7] Thy word is a lantern unto my feet
C. H. H. Parry (1848-1918)
[8] Hear my words, ye people
Исполнители:
The Choir of the Temple Church
Sally Price harp
Robert Millett percussion
Greg Morris organ
James Vivian director

Лог создания рипа

Exact Audio Copy V1.0 beta 3 from 29. August 2011
EAC extraction logfile from 23. August 2013, 13:36
The Choir of the Temple Church, James Vivian / A Festival of Psalms
Used drive : HL-DT-STDVDRRW GWA-4164B Adapter: 5 ID: 0
Read mode : SecureUtilize accurate stream : YesDefeat audio cache : YesMake use of C2 pointers : No
Read offset correction : 102Overread into Lead-In and Lead-Out : NoFill up missing offset samples with silence : YesDelete leading and trailing silent blocks : NoNull samples used in CRC calculations : YesUsed interface : Native Win32 interface for Win NT & 2000
Used output format : User Defined EncoderSelected bitrate : 896 kBit/sQuality : HighAdd ID3 tag : NoCommand line compressor : C:\Program Files\Exact Audio Copy\FLAC\FLAC.EXEAdditional command line options : -V -8 %source%
TOC of the extracted CD
Track | Start | Length | Start sector | End sector --------------------------------------------------------- 1 | 0:00.00 | 4:07.02 | 0 | 18526 2 | 4:07.02 | 5:59.58 | 18527 | 45509 3 | 10:06.60 | 8:50.29 | 45510 | 85288 4 | 18:57.14 | 12:27.48 | 85289 | 141361 5 | 31:24.62 | 3:40.18 | 141362 | 157879 6 | 35:05.05 | 14:43.34 | 157880 | 224138 7 | 49:48.39 | 5:14.21 | 224139 | 247709 8 | 55:02.60 | 15:14.65 | 247710 | 316324
Range status and errors
Selected range
Filename D:\temp\Music\A Festival of Psalms (The Choir of the Temple Church, James Vivian)\A Festival of Psalms.wav
Peak level 100.0 % Extraction speed 3.1 X Range quality 100.0 % Test CRC 5EB69470 Copy CRC 5EB69470 Copy OK
No errors occurred
AccurateRip summary
Track 1 not present in databaseTrack 2 not present in databaseTrack 3 not present in databaseTrack 4 not present in databaseTrack 5 not present in databaseTrack 6 not present in databaseTrack 7 not present in databaseTrack 8 not present in database
None of the tracks are present in the AccurateRip database
End of status report
==== Log checksum 2DD64F749F52A1FD801A6CCF48B429518C974F0F23DB16C0209D6824021F4D67 ====
[teatrix.ru].t8015.torrent 
Торрент: Зарегистрирован [ 2015-10-14 02:49 ] · 1B7CACA63CC477E57E435FE3D36323F7A5177AFD

Скачать .torrent

Скачать

25 KB

Статус: проверено
Скачан: 0 раз
Размер: 301 MB
terms.php



Быстрый ответ

Имя:

      
Для отправки сообщений необходимо включить JavaScript
Показать сообщения:    

Текущее время: 06-Дек 15:14

Часовой пояс: UTC + 3


Вы можете начинать темы
Вы можете отвечать на сообщения
Вы не можете редактировать свои сообщения
Вы не можете удалять свои сообщения
Вы не можете голосовать в опросах
Вы не можете прикреплять файлы к сообщениям
Вы можете скачивать файлы