(Classical, sacred) William Byrd - Mass for 5 Voices; Motets - Winchester Cathedral Choir, David Hill - 2012, FLAC (image+.cue) lossless


Статистика раздачи [Обновить пиров]
Размер:  284 MB   |    Зарегистрирован:  1 год 1 месяц   |    Скачан:  0 раз

Полного источника не было: Никогда

 
   
 
 
 

[Цитировать]

William Byrd - Mass for 5 Voices; Motets - Winchester Cathedral Choir, David Hill
Жанр: Classical, sacred
Страна-производитель диска: UK
Год издания диска: 2012
Издатель (лейбл): Hyperion
Номер по каталогу: CDH55348
Дата записи: 1995
Аудиокодек: FLAC
Тип рипа: image+.cue
Битрейт аудио: lossless
Продолжительность: 72:46
Источник: собственный рип
Наличие сканов в содержимом раздачи: да
Треклист:
William Byrd (1539/40-1623)
[1] Ego sum panis vivus
[2]-[13] Mass for 5 Voices with Propers for the Feast of Corpus Christi
[14] Ab ortu solis
[15] Alleluia. Cognoverunt discipuli
[16] O sacrum convivium
[17] O salutaris hostia
[18] Ave verum corpus
Исполнители:
Winchester Cathedral Choir
David Hill
Director of Music

Лог создания рипа

Exact Audio Copy V1.0 beta 3 from 29. August 2011
EAC extraction logfile from 16. October 2013, 12:09
Winchester Cathedral Choir, David Hill / Byrd - Mass for 5 Voices
Used drive : HL-DT-STDVDRRW GWA-4164B Adapter: 5 ID: 0
Read mode : SecureUtilize accurate stream : YesDefeat audio cache : YesMake use of C2 pointers : No
Read offset correction : 102Overread into Lead-In and Lead-Out : NoFill up missing offset samples with silence : YesDelete leading and trailing silent blocks : NoNull samples used in CRC calculations : YesUsed interface : Native Win32 interface for Win NT & 2000
Used output format : User Defined EncoderSelected bitrate : 896 kBit/sQuality : HighAdd ID3 tag : NoCommand line compressor : C:\Program Files\Exact Audio Copy\FLAC\FLAC.EXEAdditional command line options : -V -8 %source%
TOC of the extracted CD
Track | Start | Length | Start sector | End sector --------------------------------------------------------- 1 | 0:00.00 | 2:32.50 | 0 | 11449 2 | 2:32.50 | 3:55.45 | 11450 | 29119 3 | 6:28.20 | 1:35.27 | 29120 | 36271 4 | 8:03.47 | 4:46.23 | 36272 | 57744 5 | 12:49.70 | 4:50.55 | 57745 | 79549 6 | 17:40.50 | 6:21.17 | 79550 | 108141 7 | 24:01.67 | 9:08.10 | 108142 | 149251 8 | 33:10.02 | 1:34.23 | 149252 | 156324 9 | 34:44.25 | 2:10.27 | 156325 | 166101 10 | 36:54.52 | 1:33.60 | 166102 | 173136 11 | 38:28.37 | 4:34.28 | 173137 | 193714 12 | 43:02.65 | 3:30.32 | 193715 | 209496 13 | 46:33.22 | 3:32.33 | 209497 | 225429 14 | 50:05.55 | 6:16.07 | 225430 | 253636 15 | 56:21.62 | 4:13.55 | 253637 | 272666 16 | 60:35.42 | 3:55.70 | 272667 | 290361 17 | 64:31.37 | 3:41.33 | 290362 | 306969 18 | 68:12.70 | 4:33.55 | 306970 | 327499
Range status and errors
Selected range
Filename C:\temp\Byrd - Mass for 5 Voices (Winchester Cathedral Choir, David Hill)\Byrd - Mass for 5 Voices.wav
Peak level 100.0 % Extraction speed 2.9 X Range quality 100.0 % Test CRC 8052622C Copy CRC 8052622C Copy OK
No errors occurred
AccurateRip summary
Track 1 cannot be verified as accurate (confidence 2) [E1B01F4C], AccurateRip returned [2A0499A9] (AR v2)Track 2 cannot be verified as accurate (confidence 2) [29896562], AccurateRip returned [808ADE7D] (AR v2)Track 3 cannot be verified as accurate (confidence 2) [85DF31C3], AccurateRip returned [9B5D8033] (AR v2)Track 4 cannot be verified as accurate (confidence 2) [8863DB38], AccurateRip returned [D9DF6788] (AR v2)Track 5 cannot be verified as accurate (confidence 2) [5EFFAEE1], AccurateRip returned [FD3396FA] (AR v2)Track 6 cannot be verified as accurate (confidence 2) [37A0F056], AccurateRip returned [7F8B9055] (AR v2)Track 7 cannot be verified as accurate (confidence 2) [F562D9DE], AccurateRip returned [CC89E4F4] (AR v2)Track 8 cannot be verified as accurate (confidence 2) [EA776CF4], AccurateRip returned [777E22B6] (AR v2)Track 9 cannot be verified as accurate (confidence 2) [39D1CD26], AccurateRip returned [6154E1CF] (AR v2)Track 10 cannot be verified as accurate (confidence 2) [C9135F09], AccurateRip returned [60E36663] (AR v2)Track 11 cannot be verified as accurate (confidence 2) [FE07E8C4], AccurateRip returned [49419FDD] (AR v2)Track 12 cannot be verified as accurate (confidence 2) [78DACA5B], AccurateRip returned [7300207A] (AR v2)Track 13 cannot be verified as accurate (confidence 2) [F437E41B], AccurateRip returned [6BC29278] (AR v2)Track 14 cannot be verified as accurate (confidence 2) [DE6F656B], AccurateRip returned [2BF1115C] (AR v2)Track 15 cannot be verified as accurate (confidence 2) [CD9806AB], AccurateRip returned [CFCC0CC0] (AR v2)Track 16 cannot be verified as accurate (confidence 2) [AC41884C], AccurateRip returned [5F5AE903] (AR v2)Track 17 cannot be verified as accurate (confidence 2) [3FEFB25F], AccurateRip returned [040E3ADD] (AR v2)Track 18 cannot be verified as accurate (confidence 2) [7A271C6F], AccurateRip returned [2EF85E58] (AR v2)
No tracks could be verified as accurateYou may have a different pressing from the one(s) in the database
End of status report
==== Log checksum B4C44A94122ED6D5050E7A8C41F7254A2A84794FF213422E69C89F2EF77888BD ====
[teatrix.ru].t8016.torrent 
Торрент: Зарегистрирован [ 2015-10-14 02:49 ] · 4E24CF1C30B33BA58E7F81CEF7AD653E584229C7

Скачать .torrent

Скачать

23 KB

Статус: проверено
Скачан: 0 раз
Размер: 284 MB
terms.php



Быстрый ответ

Имя:

      
Для отправки сообщений необходимо включить JavaScript
Показать сообщения:    

Текущее время: 08-Дек 14:56

Часовой пояс: UTC + 3


Вы можете начинать темы
Вы можете отвечать на сообщения
Вы не можете редактировать свои сообщения
Вы не можете удалять свои сообщения
Вы не можете голосовать в опросах
Вы не можете прикреплять файлы к сообщениям
Вы можете скачивать файлы