(Choral) Д.Шостакович - Симфония №2 »Октябрю« | С.Прокофьев - Кантата к 20-летию Октября (BBC Symphony Orchestra and Chorus - Mark Elder) - 1997, FLAC (image+.cue) lossless


Статистика раздачи [Обновить пиров]
Размер:  287 MB   |    Зарегистрирован:  1 год 1 месяц   |    Скачан:  0 раз

Полного источника не было: Никогда

 
   
 
 
 

[Цитировать]

Shostakovich - Symphony No.2
Prokofiev - Cantata
-
-
-
-
- Жанр: Choral
Страна-производитель диска: England
Год издания диска: 1997
Издатель (лейбл): BBC Music
Дата записи: 17.02.1996
Аудиокодек: FLAC
Тип рипа: image+.cue
Битрейт аудио: lossless
Продолжительность: 65'48''
Источник: собственный рип
Наличие сканов в содержимом раздачи: да
Треклист:
Д.Шостакович
[1] Симфония №2 »Октябрю«
С.Прокофьев - Кантата к 20-летию Октября
[2] Вступление. »Призрак бродит по Европе, призрак коммунизма«
[3] »Философы« (К. Маркс, Ф. Энгельс)
[4] Интерлюдия
[5] »Мы идём тесной кучкой« (В. И. Ленин)
[6] Интерлюдия
[7] »Революция« (В. И. Ленин)
[8] »Победа« (В. И. Ленин)
[9] »Клятва« (И. В. Сталин)
[10] Симфония
[11] »Конституция« (И. В. Сталин)
Исполнители:
BBC Symphony Orchestra and Chorus - Mark Elder-

Лог создания рипа

Exact Audio Copy V1.0 beta 3 from 29. August 2011
EAC extraction logfile from 15. January 2013, 20:54
BBC Symphony Orchestra and Chorus - Mark Elder / Shostakovich 2; Prokofiev - October Revolution Cantata
Used drive : TSSTcorpCDDVDW SN-208BB Adapter: 0 ID: 1
Read mode : SecureUtilize accurate stream : YesDefeat audio cache : YesMake use of C2 pointers : No
Read offset correction : 6Overread into Lead-In and Lead-Out : NoFill up missing offset samples with silence : YesDelete leading and trailing silent blocks : NoNull samples used in CRC calculations : YesUsed interface : Native Win32 interface for Win NT & 2000
Used output format : User Defined EncoderSelected bitrate : 1024 kBit/sQuality : HighAdd ID3 tag : NoCommand line compressor : C:\Program Files (x86)\FLAC\flac.exeAdditional command line options : -T "COMMENT=rip by el coronel, rutracker.org" -8 -V %source%
TOC of the extracted CD
Track | Start | Length | Start sector | End sector --------------------------------------------------------- 1 | 0:00.00 | 19:09.35 | 0 | 86209 2 | 19:09.35 | 2:59.27 | 86210 | 99661 3 | 22:08.62 | 2:28.53 | 99662 | 110814 4 | 24:37.40 | 1:41.07 | 110815 | 118396 5 | 26:18.47 | 2:24.00 | 118397 | 129196 6 | 28:42.47 | 1:31.63 | 129197 | 136084 7 | 30:14.35 | 10:14.50 | 136085 | 182184 8 | 40:29.10 | 6:02.30 | 182185 | 209364 9 | 46:31.40 | 7:32.45 | 209365 | 243309 10 | 54:04.10 | 6:00.37 | 243310 | 270346 11 | 60:04.47 | 5:43.23 | 270347 | 296094
Range status and errors
Selected range
Filename J:\Music\Shostakovich - Symphony 2; Prokofiev - October Cantana (Elder)\Shostakovich 2; Prokofiev - October Revolution Cantata (BBC, Elder).wav
Peak level 82.8 % Extraction speed 3.0 X Range quality 100.0 % Test CRC 9CE28C16 Copy CRC 9CE28C16 Copy OK
No errors occurred
AccurateRip summary
Track 1 accurately ripped (confidence 9) [2AB10C0B] (AR v1)Track 2 accurately ripped (confidence 10) [3335A7BF] (AR v1)Track 3 accurately ripped (confidence 10) [BED1FD82] (AR v1)Track 4 accurately ripped (confidence 10) [5313573D] (AR v1)Track 5 accurately ripped (confidence 10) [763576C1] (AR v1)Track 6 accurately ripped (confidence 10) [3A13A12C] (AR v1)Track 7 accurately ripped (confidence 10) [56956E50] (AR v1)Track 8 accurately ripped (confidence 10) [DBA79FA4] (AR v1)Track 9 accurately ripped (confidence 9) [7174D8FD] (AR v1)Track 10 accurately ripped (confidence 10) [AE52EE5D] (AR v1)Track 11 accurately ripped (confidence 10) [AB554057] (AR v1)
All tracks accurately ripped
End of status report
==== Log checksum 05D477F7DDE946D59B81B98282C8F36D4287D20DC759A81FFF050D1BE5C9E6A2 ====

Содержание индексной карты (.CUE)

REM GENRE ClassicalREM DATE 1997REM DISCID 8F0F6B0BREM COMMENT ExactAudioCopy v1.0b3PERFORMER "BBC Symphony Orchestra and Chorus - Mark Elder"TITLE "Shostakovich 2; Prokofiev - October Revolution Cantata"FILE "Shostakovich 2; Prokofiev - October Revolution Cantata (BBC, Elder).flac" WAVE TRACK 01 AUDIO TITLE "D.Shostakovich - Symphony No.2 'A dedication to October'" INDEX 01 00:00:00 TRACK 02 AUDIO TITLE "S.Prokofiev - Cantata for the 20th Anniversary of the October Revolution: I. Prelude" INDEX 00 19:01:07 INDEX 01 19:09:35 TRACK 03 AUDIO TITLE "II. Philosophers" INDEX 01 22:08:62 TRACK 04 AUDIO TITLE "III. Interlude" INDEX 01 24:37:40 TRACK 05 AUDIO TITLE "IV. Marching in Close Ranks" INDEX 01 26:18:47 TRACK 06 AUDIO TITLE "V. Interlude" INDEX 01 28:42:47 TRACK 07 AUDIO TITLE "VI. Revolution" INDEX 01 30:14:35 TRACK 08 AUDIO TITLE "VII. Victory " INDEX 01 40:29:10 TRACK 09 AUDIO TITLE "VIII. The Pledge" INDEX 00 46:31:39 INDEX 01 46:31:40 TRACK 10 AUDIO TITLE "IX. Symphony" INDEX 01 54:04:10 TRACK 11 AUDIO TITLE "X. The Constitution" INDEX 01 60:04:47
-Доп. информация: К празднику, который многие до сих пор по инерции, по доброй памяти или из принципиальных соображений считают Красным днём календаря.
[teatrix.ru].t8017.torrent 
Торрент: Зарегистрирован [ 2015-10-14 02:49 ] · D2929A7C0C87C3F4AE6A823E4488F27D27D9FC2C

Скачать .torrent

Скачать

12 KB

Статус: проверено
Скачан: 0 раз
Размер: 287 MB
terms.php



Быстрый ответ

Имя:

      
Для отправки сообщений необходимо включить JavaScript
Показать сообщения:    

Текущее время: 04-Дек 21:27

Часовой пояс: UTC + 3


Вы можете начинать темы
Вы можете отвечать на сообщения
Вы не можете редактировать свои сообщения
Вы не можете удалять свои сообщения
Вы не можете голосовать в опросах
Вы не можете прикреплять файлы к сообщениям
Вы можете скачивать файлы