(Classical, 20th century) Percy Grainger - Jungle Book and other choral works - Libby Crabtree, John Mark Ainsley, David Wilson-Johnson; Polyphony, Stephen Layton - 2011, FLAC (image+.cue) lossless


Статистика раздачи [Обновить пиров]
Размер:  237 MB   |    Зарегистрирован:  1 год 1 месяц   |    Скачан:  0 раз

Полного источника не было: Никогда

 
   
 
 
 

[Цитировать]

Percy Grainger - Jungle Book and other choral works - Libby Crabtree, John Mark Ainsley, David Wilson-Johnson; Polyphony, Stephen Layton
Жанр: Classical, 20th century
Страна-производитель диска: UK
Год издания диска: 2011
Издатель (лейбл): Hyperion
Номер по каталогу: CDH55433
Дата записи: 1996
Аудиокодек: FLAC
Тип рипа: image+.cue
Битрейт аудио: lossless
Продолжительность: 73:58
Источник: собственный рип
Наличие сканов в содержимом раздачи: да
Треклист:
Percy Grainger (1882-1961)
[1] Shallow Brown
[2]-[12] Jungle Book
[13] Good-Bye to Love
[14] Died for Love
[15] The Power of Love
[16] The Rival Brothers
[17] Six Dukes Went Afishin'
[18] The Sprig of Thyme
[19] Willow, Willow
[20] Recessional
[21] Lord Maxwell's Goodnight
[22] The Three Ravens
[23] The Running of Shindand
[24] Early One Morning
[25] The Love Song of Har Dyal
[26] My Love's in Germanie
Исполнители:
Libby Crabtree soprano
John Mark Ainsley tenor
David Wilson-Johnson baritone
Polyphony
The Polyphony Orchestra
Stephen Layton
conductor

Лог создания рипа

Exact Audio Copy V1.0 beta 3 from 29. August 2011
EAC extraction logfile from 27. October 2013, 19:29
Polyphony, Stephen Layton / Grainger - Jungle Book
Used drive : HL-DT-STDVDRAM GSA-4083N Adapter: 1 ID: 0
Read mode : SecureUtilize accurate stream : YesDefeat audio cache : YesMake use of C2 pointers : No
Read offset correction : 667Overread into Lead-In and Lead-Out : NoFill up missing offset samples with silence : YesDelete leading and trailing silent blocks : NoNull samples used in CRC calculations : YesUsed interface : Native Win32 interface for Win NT & 2000
Used output format : User Defined EncoderSelected bitrate : 896 kBit/sQuality : HighAdd ID3 tag : NoCommand line compressor : C:\Program Files\Exact Audio Copy\Flac\flac.exeAdditional command line options : -V -8 %source%
TOC of the extracted CD
Track | Start | Length | Start sector | End sector --------------------------------------------------------- 1 | 0:00.00 | 6:09.35 | 0 | 27709 2 | 6:09.35 | 2:14.72 | 27710 | 37831 3 | 8:24.32 | 2:54.20 | 37832 | 50901 4 | 11:18.52 | 0:52.70 | 50902 | 54871 5 | 12:11.47 | 2:20.48 | 54872 | 65419 6 | 14:32.20 | 3:26.45 | 65420 | 80914 7 | 17:58.65 | 1:14.47 | 80915 | 86511 8 | 19:13.37 | 0:42.10 | 86512 | 89671 9 | 19:55.47 | 1:22.48 | 89672 | 95869 10 | 21:18.20 | 1:23.45 | 95870 | 102139 11 | 22:41.65 | 4:43.27 | 102140 | 123391 12 | 27:25.17 | 3:53.28 | 123392 | 140894 13 | 31:18.45 | 3:57.10 | 140895 | 158679 14 | 35:15.55 | 1:29.60 | 158680 | 165414 15 | 36:45.40 | 4:56.17 | 165415 | 187631 16 | 41:41.57 | 1:07.13 | 187632 | 192669 17 | 42:48.70 | 2:24.10 | 192670 | 203479 18 | 45:13.05 | 2:38.37 | 203480 | 215366 19 | 47:51.42 | 4:03.03 | 215367 | 233594 20 | 51:54.45 | 4:03.52 | 233595 | 251871 21 | 55:58.22 | 2:50.50 | 251872 | 264671 22 | 58:48.72 | 4:07.68 | 264672 | 283264 23 | 62:56.65 | 1:44.20 | 283265 | 291084 24 | 64:41.10 | 2:54.15 | 291085 | 304149 25 | 67:35.25 | 2:15.70 | 304150 | 314344 26 | 69:51.20 | 4:05.49 | 314345 | 332768
Range status and errors
Selected range
Filename J:\New Music\Grainger - Jungle Book\Grainger - Jungle Book.wav
Peak level 88.2 % Extraction speed 2.8 X Range quality 100.0 % Test CRC 4D6D49DD Copy CRC 4D6D49DD Copy OK
No errors occurred
End of status report
==== Log checksum 0E29CC23605E740E2191E5A90EE873ACC01B3C615B0E6512B09576C9DE655559 ====
[teatrix.ru].t8018.torrent 
Торрент: Зарегистрирован [ 2015-10-14 02:49 ] · 03FC6F3B9692C3423FAEC346ABB66E861DFF9683

Скачать .torrent

Скачать

38 KB

Статус: проверено
Скачан: 0 раз
Размер: 237 MB
terms.php



Быстрый ответ

Имя:

      
Для отправки сообщений необходимо включить JavaScript
Показать сообщения:    

Текущее время: 08-Дек 14:52

Часовой пояс: UTC + 3


Вы можете начинать темы
Вы можете отвечать на сообщения
Вы не можете редактировать свои сообщения
Вы не можете удалять свои сообщения
Вы не можете голосовать в опросах
Вы не можете прикреплять файлы к сообщениям
Вы можете скачивать файлы