(Classical, contemporary) James MacMillan - New Choral Music: Who are these Angels?; Mass of Blessed John Henry Newman; etc. - Cappella Nova, Alan Tavener - 2011, FLAC (image+.cue) lossless


Статистика раздачи [Обновить пиров]
Размер:  301 MB   |    Зарегистрирован:  1 год 1 месяц   |    Скачан:  0 раз

Полного источника не было: Никогда

 
   
 
 
 

[Цитировать]

James MacMillan - New Choral Music: Who are these Angels?; Mass of Blessed John Henry Newman - Cappella Nova, Alan Tavener
Жанр: Classical, contemporary
Страна-производитель диска: UK
Год издания диска: 2011
Издатель (лейбл): Linn Records
Номер по каталогу: CKD 383
Дата записи: 2010
Аудиокодек: FLAC
Тип рипа: image+.cue
Битрейт аудио: lossless
Продолжительность: 72:08
Источник: собственный рип
Наличие сканов в содержимом раздачи: да
Треклист:
James MacMillan
[1] And lo, the Angel of the Lord
[2] Qui meditabitur (Strathclyde Motet)
[3] O Radiant Dawn (Strathclyde Motet)
[4] Lux aeterna (Strathclyde Motet)
[5] Os mutorum (Strathclyde Motet)
[6] Bring us, O Lord
[7] Canticle of Zachariah (Strathclyde Motet)
[8] Benedictus Deus
[9] Advent Antiphon
[10] Pascha nostrum immolutes est (Strathclyde Motet)
[11] Who are these Angels?
[12] Think of how God loves you
[13] Benedicimus Deum caeli (Strathclyde Motet)
[14]-[18] Mass of Blessed John Henry Newman
[19] Tota pulchra es
Исполнители:
Cappella Nova
Alan Tavener

Лог создания рипа

Exact Audio Copy V1.0 beta 3 from 29. August 2011
EAC extraction logfile from 12. June 2013, 14:41
Cappella Nova, Alan Tavener / MacMillan - Who are these Angels?
Used drive : HL-DT-STDVDRRW GWA-4164B Adapter: 5 ID: 0
Read mode : SecureUtilize accurate stream : YesDefeat audio cache : YesMake use of C2 pointers : No
Read offset correction : 102Overread into Lead-In and Lead-Out : NoFill up missing offset samples with silence : YesDelete leading and trailing silent blocks : NoNull samples used in CRC calculations : YesUsed interface : Native Win32 interface for Win NT & 2000
Used output format : User Defined EncoderSelected bitrate : 896 kBit/sQuality : HighAdd ID3 tag : NoCommand line compressor : C:\Program Files\Exact Audio Copy\FLAC\FLAC.EXEAdditional command line options : -V -8 %source%
TOC of the extracted CD
Track | Start | Length | Start sector | End sector --------------------------------------------------------- 1 | 0:00.00 | 4:47.29 | 0 | 21553 2 | 4:47.29 | 5:33.01 | 21554 | 46529 3 | 10:20.30 | 4:23.41 | 46530 | 66295 4 | 14:43.71 | 3:47.64 | 66296 | 83384 5 | 18:31.60 | 4:32.59 | 83385 | 103843 6 | 23:04.44 | 6:10.31 | 103844 | 131624 7 | 29:15.00 | 3:47.71 | 131625 | 148720 8 | 33:02.71 | 4:55.65 | 148721 | 170910 9 | 37:58.61 | 4:26.39 | 170911 | 190899 10 | 42:25.25 | 4:29.25 | 190900 | 211099 11 | 46:54.50 | 5:55.38 | 211100 | 237762 12 | 52:50.13 | 2:37.34 | 237763 | 249571 13 | 55:27.47 | 3:10.07 | 249572 | 263828 14 | 58:37.54 | 1:15.54 | 263829 | 269507 15 | 59:53.33 | 2:44.73 | 269508 | 281880 16 | 62:38.31 | 2:01.41 | 281881 | 290996 17 | 64:39.72 | 0:50.32 | 290997 | 294778 18 | 65:30.29 | 2:02.50 | 294779 | 303978 19 | 67:33.04 | 4:33.49 | 303979 | 324502
Range status and errors
Selected range
Filename D:\temp\Music\MacMillan - Who are these Angels\MacMillan - Who are these Angels.wav
Peak level 88.2 % Extraction speed 4.1 X Range quality 100.0 % Test CRC 9F64CA4B Copy CRC 9F64CA4B Copy OK
No errors occurred
End of status report
==== Log checksum 7606505403E0A56EAF207CB97D5592741EB9AD8703F81156BB0548B19CD9756E ====
[teatrix.ru].t8019.torrent 
Торрент: Зарегистрирован [ 2015-10-14 02:49 ] · 2F17379DF00C0989AD974C4097F33F37F959390E

Скачать .torrent

Скачать

26 KB

Статус: проверено
Скачан: 0 раз
Размер: 301 MB
terms.php



Быстрый ответ

Имя:

      
Для отправки сообщений необходимо включить JavaScript
Показать сообщения:    

Текущее время: 04-Дек 00:53

Часовой пояс: UTC + 3


Вы можете начинать темы
Вы можете отвечать на сообщения
Вы не можете редактировать свои сообщения
Вы не можете удалять свои сообщения
Вы не можете голосовать в опросах
Вы не можете прикреплять файлы к сообщениям
Вы можете скачивать файлы