(Classical, sacred, 20th century) Goffredo Petrassi - Magnificat; Salmo IX - Sabina Cvilak, Orchestra & Coro Teatro Regio Torino, Gianandrea Noseda - 2013, FLAC (image+.cue) lossless


Статистика раздачи [Обновить пиров]
Размер:  267 MB   |    Зарегистрирован:  1 год 1 месяц   |    Скачан:  0 раз

Полного источника не было: Никогда

 
   
 
 
 

[Цитировать]

Goffredo Petrassi - Magnificat; Salmo IX - Sabina Cvilak, Orchestra & Coro Teatro Regio Torino, Gianandrea Noseda
Жанр: Classical, sacred, 20th century
Страна-производитель диска: UK
Год издания диска: 2013
Издатель (лейбл): Chandos Records
Номер по каталогу: CHAN 10750
Дата записи: 2012
Аудиокодек: FLAC
Тип рипа: image+.cue
Битрейт аудио: lossless
Продолжительность: 65:58
Источник: собственный рип
Наличие сканов в содержимом раздачи: да
Треклист:
Goffredo Petrassi (1904-2003)
[1]-[13] Magnificat
for Soprano leggero, Chorus and Orchestra
[14]-[29] Salmo IX
in Two Parts for Chorus, String Orchestra, Brass, Percussion and Two Pianos
Исполнители:
Sabina Cvilak soprano
Coro Teatro Regio Torino
Orchestra Teatro Regio Torino
Gianandrea Noseda

Лог создания рипа

Exact Audio Copy V1.0 beta 3 from 29. August 2011
EAC extraction logfile from 21. August 2013, 15:22
Sabina Cvilak, Orchestra & Coro Teatro Regio Torino, Gianandrea Noseda / Petrassi - Magnificat; Salmo IX
Used drive : HL-DT-STDVDRRW GWA-4164B Adapter: 5 ID: 0
Read mode : SecureUtilize accurate stream : YesDefeat audio cache : YesMake use of C2 pointers : No
Read offset correction : 102Overread into Lead-In and Lead-Out : NoFill up missing offset samples with silence : YesDelete leading and trailing silent blocks : NoNull samples used in CRC calculations : YesUsed interface : Native Win32 interface for Win NT & 2000
Used output format : User Defined EncoderSelected bitrate : 896 kBit/sQuality : HighAdd ID3 tag : NoCommand line compressor : C:\Program Files\Exact Audio Copy\FLAC\FLAC.EXEAdditional command line options : -V -8 %source%
TOC of the extracted CD
Track | Start | Length | Start sector | End sector --------------------------------------------------------- 1 | 0:00.00 | 3:38.63 | 0 | 16412 2 | 3:38.63 | 1:37.00 | 16413 | 23687 3 | 5:15.63 | 3:40.25 | 23688 | 40212 4 | 8:56.13 | 3:06.44 | 40213 | 54206 5 | 12:02.57 | 1:04.40 | 54207 | 59046 6 | 13:07.22 | 3:20.73 | 59047 | 74119 7 | 16:28.20 | 1:39.47 | 74120 | 81591 8 | 18:07.67 | 2:18.63 | 81592 | 92004 9 | 20:26.55 | 1:23.52 | 92005 | 98281 10 | 21:50.32 | 2:31.74 | 98282 | 109680 11 | 24:22.31 | 2:13.57 | 109681 | 119712 12 | 26:36.13 | 1:46.42 | 119713 | 127704 13 | 28:22.55 | 2:37.32 | 127705 | 139511 14 | 31:00.12 | 2:32.00 | 139512 | 150911 15 | 33:32.12 | 2:49.02 | 150912 | 163588 16 | 36:21.14 | 1:21.67 | 163589 | 169730 17 | 37:43.06 | 2:15.74 | 169731 | 179929 18 | 39:59.05 | 1:22.04 | 179930 | 186083 19 | 41:21.09 | 2:02.31 | 186084 | 195264 20 | 43:23.40 | 3:37.49 | 195265 | 211588 21 | 47:01.14 | 4:55.06 | 211589 | 233719 22 | 51:56.20 | 2:22.41 | 233720 | 244410 23 | 54:18.61 | 2:29.14 | 244411 | 255599 24 | 56:48.00 | 1:54.12 | 255600 | 264161 25 | 58:42.12 | 0:53.72 | 264162 | 268208 26 | 59:36.09 | 0:45.35 | 268209 | 271618 27 | 60:21.44 | 2:17.25 | 271619 | 281918 28 | 62:38.69 | 0:44.32 | 281919 | 285250 29 | 63:23.26 | 2:36.10 | 285251 | 296960
Range status and errors
Selected range
Filename D:\temp\Music\Petrassi - Magnificat; Salmo IX (Cvilak, Orchestra & Coro Teatro Regio Torino, Noseda)\Petrassi - Magnificat; Salmo IX.wav
Peak level 98.0 % Extraction speed 3.4 X Range quality 100.0 % Test CRC 5F0EA894 Copy CRC 5F0EA894 Copy OK
No errors occurred
AccurateRip summary
Track 1 accurately ripped (confidence 1) [7D13B860] (AR v2)Track 2 accurately ripped (confidence 1) [E55CC78B] (AR v2)Track 3 accurately ripped (confidence 1) [2FE4E52C] (AR v2)Track 4 accurately ripped (confidence 1) [7D14A227] (AR v2)Track 5 accurately ripped (confidence 1) [58D22945] (AR v2)Track 6 accurately ripped (confidence 1) [B5126667] (AR v2)Track 7 accurately ripped (confidence 1) [9B80E08D] (AR v2)Track 8 accurately ripped (confidence 1) [6B6061DF] (AR v2)Track 9 accurately ripped (confidence 1) [FA246643] (AR v2)Track 10 accurately ripped (confidence 1) [0310AF47] (AR v2)Track 11 accurately ripped (confidence 1) [9742A074] (AR v2)Track 12 accurately ripped (confidence 1) [84FD9765] (AR v2)Track 13 accurately ripped (confidence 1) [903CC81C] (AR v2)Track 14 accurately ripped (confidence 1) [802B47EE] (AR v2)Track 15 accurately ripped (confidence 1) [513B3310] (AR v2)Track 16 accurately ripped (confidence 1) [23621429] (AR v2)Track 17 accurately ripped (confidence 1) [DB6B6180] (AR v2)Track 18 accurately ripped (confidence 1) [A006A675] (AR v2)Track 19 accurately ripped (confidence 1) [8B6CB31D] (AR v2)Track 20 accurately ripped (confidence 1) [E8B91C0A] (AR v2)Track 21 accurately ripped (confidence 1) [6BAA0FC5] (AR v2)Track 22 accurately ripped (confidence 1) [85241632] (AR v2)Track 23 accurately ripped (confidence 1) [C09A9027] (AR v2)Track 24 accurately ripped (confidence 1) [F92CC7F6] (AR v2)Track 25 accurately ripped (confidence 1) [3A00B0F6] (AR v2)Track 26 accurately ripped (confidence 1) [7693965A] (AR v2)Track 27 accurately ripped (confidence 1) [29568B81] (AR v2)Track 28 accurately ripped (confidence 1) [48908A29] (AR v2)Track 29 accurately ripped (confidence 1) [43DB10C2] (AR v2)
All tracks accurately ripped
End of status report
==== Log checksum C7116DF3BA13F5CE3EB74F17B407677230F2E3790AF930EA70F1C5951E82A7F3 ====
[teatrix.ru].t8020.torrent 
Торрент: Зарегистрирован [ 2015-10-14 02:49 ] · D88A201BE971F742EEFE7BC2F2C067D9D4136C4D

Скачать .torrent

Скачать

22 KB

Статус: проверено
Скачан: 0 раз
Размер: 267 MB
terms.php



Быстрый ответ

Имя:

      
Для отправки сообщений необходимо включить JavaScript
Показать сообщения:    

Текущее время: 04-Дек 02:46

Часовой пояс: UTC + 3


Вы можете начинать темы
Вы можете отвечать на сообщения
Вы не можете редактировать свои сообщения
Вы не можете удалять свои сообщения
Вы не можете голосовать в опросах
Вы не можете прикреплять файлы к сообщениям
Вы можете скачивать файлы