(Classical, contemporary) Einojuhani Rautavaara - Kainuu: Works for mixed choir - Estonian Philharmonic Chamber Choir, Timo Nuoranne, Mika Nuojua, Madis Metsamart, Piret Aidulo - 2011, FLAC (image+.cue) lossless


Статистика раздачи [Обновить пиров]
Размер:  260 MB   |    Зарегистрирован:  1 год 1 месяц   |    Скачан:  0 раз

Полного источника не было: Никогда

 
   
 
 
 

[Цитировать]

Einojuhani Rautavaara - Kainuu: Works for mixed choir - Estonian Philharmonic Chamber Choir, Timo Nuoranne, Mika Nuojua, Madis Metsamart, Piret Aidulo
Жанр: Classical, contemporary
Страна-производитель диска: Finland
Год издания диска: 2011
Издатель (лейбл): Bells Publishing
Номер по каталогу: BELLS-002
Дата записи: 2008
Аудиокодек: FLAC
Тип рипа: image+.cue
Битрейт аудио: lossless
Продолжительность: 57:21
Источник: собственный рип
Наличие сканов в содержимом раздачи: да
Треклист:
Einojuhani Rautavaara
Works for mixed choir
[1]-[5] Kainuu
[6] Ylistyspsalmi (A Psalm of Praise)
[7] Odotus (Waiting)
Исполнители:
Estonian Philharmonic Chamber Choir
Timo Nuoranne
conductor
Mika Nuojua reciter
Madis Metsamart percussion
Piret Aidulo organ

Лог создания рипа

Exact Audio Copy V1.0 beta 3 from 29. August 2011
EAC extraction logfile from 16. August 2013, 16:57
Estonian Philharmonic Chamber Choir, Timo Nuoranne / Rautavaara - Kainuu
Used drive : HL-DT-STDVDRRW GWA-4164B Adapter: 5 ID: 0
Read mode : SecureUtilize accurate stream : YesDefeat audio cache : YesMake use of C2 pointers : No
Read offset correction : 102Overread into Lead-In and Lead-Out : NoFill up missing offset samples with silence : YesDelete leading and trailing silent blocks : NoNull samples used in CRC calculations : YesUsed interface : Native Win32 interface for Win NT & 2000
Used output format : User Defined EncoderSelected bitrate : 896 kBit/sQuality : HighAdd ID3 tag : NoCommand line compressor : C:\Program Files\Exact Audio Copy\FLAC\FLAC.EXEAdditional command line options : -V -8 %source%
TOC of the extracted CD
Track | Start | Length | Start sector | End sector --------------------------------------------------------- 1 | 0:00.00 | 11:14.31 | 0 | 50580 2 | 11:14.31 | 4:11.64 | 50581 | 69469 3 | 15:26.20 | 8:57.48 | 69470 | 109792 4 | 24:23.68 | 4:10.36 | 109793 | 128578 5 | 28:34.29 | 4:02.07 | 128579 | 146735 6 | 32:36.36 | 7:35.10 | 146736 | 180870 7 | 40:11.46 | 17:13.35 | 180871 | 258380
Range status and errors
Selected range
Filename C:\temp\Rautavaara - Kainuu (Estonian Philharmonic Chamber Choir, Nuoranne)\Rautavaara - Kainuu.wav
Peak level 100.0 % Extraction speed 3.7 X Range quality 100.0 % Test CRC 8E799468 Copy CRC 8E799468 Copy OK
No errors occurred
AccurateRip summary
Track 1 not present in databaseTrack 2 not present in databaseTrack 3 not present in databaseTrack 4 not present in databaseTrack 5 not present in databaseTrack 6 not present in databaseTrack 7 not present in database
None of the tracks are present in the AccurateRip database
End of status report
==== Log checksum 80E31985330220D0D508ECF9DFEE564B16B38148DC21EC1728B7D8CA2F1EFF3C ====
[teatrix.ru].t8021.torrent 
Торрент: Зарегистрирован [ 2015-10-14 02:49 ] · C3B80074C1D741A6CF1A62C16F0B1864C93D32A4

Скачать .torrent

Скачать

22 KB

Статус: проверено
Скачан: 0 раз
Размер: 260 MB
terms.php



Быстрый ответ

Имя:

      
Для отправки сообщений необходимо включить JavaScript
Показать сообщения:    

Текущее время: 10-Дек 06:04

Часовой пояс: UTC + 3


Вы можете начинать темы
Вы можете отвечать на сообщения
Вы не можете редактировать свои сообщения
Вы не можете удалять свои сообщения
Вы не можете голосовать в опросах
Вы не можете прикреплять файлы к сообщениям
Вы можете скачивать файлы