(Choir) Lege Artis • Борис Абальян - Русские народные песни в хоровой обработке (Мусоргский | Шостакович | Слонимский | Александров | Стравинский | Чесноков | Лядов | Свешников и др.) - 2004, FLAC (image+.cue) lossless


Статистика раздачи [Обновить пиров]
Размер:  230 MB   |    Зарегистрирован:  1 год 1 месяц   |    Скачан:  0 раз

Полного источника не было: Никогда

 
   
 
 
 

[Цитировать]

Russian
Folk Songs

in Choir Arrangements
-
-
-
-
- Жанр: Choir
Страна-производитель диска: Russia
Год издания диска: 2004
Издатель (лейбл): Northern Flowers
Дата записи: 05.1999
Аудиокодек: FLAC
Тип рипа: image+.cue
Битрейт аудио: lossless
Продолжительность: 60'25''
Источник: собственный рип
Наличие сканов в содержимом раздачи: да
Треклист:
М.Мусоргский
[1] У ворот батюшкиных
[2] Ах ты, воля
А.Лядов
[3] Во лузях
[4] Ты, река ль моя, реченька
[5] Ты не стой, колодец
[6] Ты о чём, мальчик, тоскуешь
Неизвестный автор
[7] Отдаёт меня батюшка замуж
П.Чесноков
[8] Вдоль по речке
В.Соколов
[9] Ах, не одна во поле дороженька
И.Стравинский - Четыре русские крестьянские песни:
[10] У Спаса в Чигисах
[11] Овсень
[12] Щука
[13] Пузище
А.Александров
[14] Горы
А.Свешников
[15] Дороженька
[16] В тёмном лесе
Ф.Рубцов
[17] Веники
Д.Шостакович
[18] Младшенькая
А.Михайлов
[19] Во лесочке комарочков много уродилось
[20] Говорил-то мне милый друг
[21] Полно-полно вам, ребята
О.Коловский
[22] Псковские припевки
[23] На горушке, на горе
[24] Частушки
[25] Тройка
С.Слонимский - Две русские песни:
[26] Печальное сердце моё
[27] Люби жену, да не бей
В.Калистратов
[28] Таня-Танюша
Исполнители:
Lege Artis • Борис Абальян-

Лог создания рипа

Exact Audio Copy V1.0 beta 3 from 29. August 2011
EAC extraction logfile from 12. August 2013, 18:33
Unknown Artist / Russian Folk Songs in Choir Arrangements
Used drive : COMPAQ CD-ROM LTN403 Adapter: 0 ID: 0
Read mode : SecureUtilize accurate stream : YesDefeat audio cache : YesMake use of C2 pointers : No
Read offset correction : -1164Overread into Lead-In and Lead-Out : YesFill up missing offset samples with silence : YesDelete leading and trailing silent blocks : NoNull samples used in CRC calculations : YesUsed interface : Native Win32 interface for Win NT & 2000
Used output format : User Defined EncoderSelected bitrate : 128 kBit/sQuality : HighAdd ID3 tag : NoCommand line compressor : C:\Program Files\FLAC\flac.exeAdditional command line options : -T "COMMENT=rip by el coronel, rutracker.org" -8 -V %source%
TOC of the extracted CD
Track | Start | Length | Start sector | End sector --------------------------------------------------------- 1 | 0:00.00 | 1:18.13 | 0 | 5862 2 | 1:18.13 | 1:49.38 | 5863 | 14075 3 | 3:07.51 | 1:38.68 | 14076 | 21493 4 | 4:46.44 | 3:06.61 | 21494 | 35504 5 | 7:53.30 | 2:44.30 | 35505 | 47834 6 | 10:37.60 | 2:52.40 | 47835 | 60774 7 | 13:30.25 | 1:45.38 | 60775 | 68687 8 | 15:15.63 | 1:58.39 | 68688 | 77576 9 | 17:14.27 | 3:06.62 | 77577 | 91588 10 | 20:21.14 | 0:37.71 | 91589 | 94434 11 | 20:59.10 | 1:04.52 | 94435 | 99286 12 | 22:03.62 | 0:58.02 | 99287 | 103638 13 | 23:01.64 | 1:07.06 | 103639 | 108669 14 | 24:08.70 | 2:45.57 | 108670 | 121101 15 | 26:54.52 | 2:49.47 | 121102 | 133823 16 | 29:44.24 | 1:56.45 | 133824 | 142568 17 | 31:40.69 | 1:06.28 | 142569 | 147546 18 | 32:47.22 | 1:06.05 | 147547 | 152501 19 | 33:53.27 | 1:18.31 | 152502 | 158382 20 | 35:11.58 | 1:58.04 | 158383 | 167236 21 | 37:09.62 | 1:21.72 | 167237 | 173383 22 | 38:31.59 | 2:53.64 | 173384 | 186422 23 | 41:25.48 | 1:30.60 | 186423 | 193232 24 | 42:56.33 | 4:19.29 | 193233 | 212686 25 | 47:15.62 | 4:39.60 | 212687 | 233671 26 | 51:55.47 | 3:51.40 | 233672 | 251036 27 | 55:47.12 | 2:36.05 | 251037 | 262741 28 | 58:23.17 | 2:01.29 | 262742 | 271845
Range status and errors
Selected range
Filename C:\Russian Folk Songs in Choir Arrangements.wav
Peak level 87.3 % Extraction speed 2.9 X Range quality 99.9 % Test CRC CF9C2384 Copy CRC CF9C2384 Copy OK
No errors occurred
AccurateRip summary
Track 1 not present in databaseTrack 2 not present in databaseTrack 3 not present in databaseTrack 4 not present in databaseTrack 5 not present in databaseTrack 6 not present in databaseTrack 7 not present in databaseTrack 8 not present in databaseTrack 9 not present in databaseTrack 10 not present in databaseTrack 11 not present in databaseTrack 12 not present in databaseTrack 13 not present in databaseTrack 14 not present in databaseTrack 15 not present in databaseTrack 16 not present in databaseTrack 17 not present in databaseTrack 18 not present in databaseTrack 19 not present in databaseTrack 20 not present in databaseTrack 21 not present in databaseTrack 22 not present in databaseTrack 23 not present in databaseTrack 24 not present in databaseTrack 25 not present in databaseTrack 26 not present in databaseTrack 27 not present in databaseTrack 28 not present in database
None of the tracks are present in the AccurateRip database
End of status report
==== Log checksum 1403CC9F5354130451AA0E6F6141734AC33190F8246A5CAA30F342D882B2BEC1 ====

Содержание индексной карты (.CUE)

REM GENRE "A Cappella"REM DATE 2004REM DISCID 830E281CREM COMMENT "ExactAudioCopy v1.0b3"PERFORMER "The LEGE ARTIS - B.Abalian"TITLE "Russian Folk Songs in Choir Arrangements"FILE "Russian Folk Songs in Choir Arrangements.flac" WAVE TRACK 01 AUDIO TITLE "М.Мусоргский - У ворот батюшкиных" PERFORMER "The LEGE ARTIS - B.Abalian" FLAGS DCP INDEX 01 00:00:00 TRACK 02 AUDIO TITLE "Ах ты, воля" PERFORMER "The LEGE ARTIS - B.Abalian" FLAGS DCP INDEX 01 01:18:13 TRACK 03 AUDIO TITLE "А.Лядов - Во лузях" PERFORMER "The LEGE ARTIS - B.Abalian" FLAGS DCP INDEX 01 03:07:51 TRACK 04 AUDIO TITLE "Ты, река ль моя, реченька" PERFORMER "The LEGE ARTIS - B.Abalian" FLAGS DCP INDEX 01 04:46:44 TRACK 05 AUDIO TITLE "Ты не стой, колодец" PERFORMER "The LEGE ARTIS - B.Abalian" FLAGS DCP INDEX 01 07:53:30 TRACK 06 AUDIO TITLE "Ты о чём, мальчик, тоскуешь" PERFORMER "The LEGE ARTIS - B.Abalian" FLAGS DCP INDEX 01 10:37:60 TRACK 07 AUDIO TITLE "Неизвестный автор - Отдаёт меня батюшка замуж" PERFORMER "The LEGE ARTIS - B.Abalian" FLAGS DCP INDEX 01 13:30:25 TRACK 08 AUDIO TITLE "П.Чесноков - Вдоль по речке" PERFORMER "The LEGE ARTIS - B.Abalian" FLAGS DCP INDEX 01 15:15:63 TRACK 09 AUDIO TITLE "В.Соколов - Ах, не одна во поле дороженька" PERFORMER "The LEGE ARTIS - B.Abalian" FLAGS DCP INDEX 01 17:14:27 TRACK 10 AUDIO TITLE "И.Стравинский - Четыре русские крестьянские песни: У Спаса в Чигисах" PERFORMER "The LEGE ARTIS - B.Abalian" FLAGS DCP INDEX 01 20:21:14 TRACK 11 AUDIO TITLE "Овсень" PERFORMER "The LEGE ARTIS - B.Abalian" FLAGS DCP INDEX 01 20:59:10 TRACK 12 AUDIO TITLE "Щука" PERFORMER "The LEGE ARTIS - B.Abalian" FLAGS DCP INDEX 01 22:03:62 TRACK 13 AUDIO TITLE "Пузище" PERFORMER "The LEGE ARTIS - B.Abalian" FLAGS DCP INDEX 01 23:01:64 TRACK 14 AUDIO TITLE "А.Александров - Горы" PERFORMER "The LEGE ARTIS - B.Abalian" FLAGS DCP INDEX 01 24:08:70 TRACK 15 AUDIO TITLE "А.Свешников - Дороженька" PERFORMER "The LEGE ARTIS - B.Abalian" FLAGS DCP INDEX 01 26:54:52 TRACK 16 AUDIO TITLE "В тёмном лесе" PERFORMER "The LEGE ARTIS - B.Abalian" FLAGS DCP INDEX 01 29:44:24 TRACK 17 AUDIO TITLE "Ф.Рубцов - Веники" PERFORMER "The LEGE ARTIS - B.Abalian" FLAGS DCP INDEX 01 31:40:69 TRACK 18 AUDIO TITLE "Д.Шостакович - Младшенькая" PERFORMER "The LEGE ARTIS - B.Abalian" FLAGS DCP INDEX 01 32:47:22 TRACK 19 AUDIO TITLE "А.Михайлов - Во лесочке комарочков много уродилось" PERFORMER "The LEGE ARTIS - B.Abalian" FLAGS DCP INDEX 01 33:53:27 TRACK 20 AUDIO TITLE "Говорил-то мне милый друг" PERFORMER "The LEGE ARTIS - B.Abalian" FLAGS DCP INDEX 01 35:11:58 TRACK 21 AUDIO TITLE "Полно-полно вам, ребята" PERFORMER "The LEGE ARTIS - B.Abalian" FLAGS DCP INDEX 01 37:09:62 TRACK 22 AUDIO TITLE "О.Коловский - Псковские припевки" PERFORMER "The LEGE ARTIS - B.Abalian" FLAGS DCP INDEX 01 38:31:59 TRACK 23 AUDIO TITLE "На горушке, на горе" PERFORMER "The LEGE ARTIS - B.Abalian" FLAGS DCP INDEX 01 41:25:48 TRACK 24 AUDIO TITLE "Частушки" PERFORMER "The LEGE ARTIS - B.Abalian" FLAGS DCP INDEX 01 42:56:33 TRACK 25 AUDIO TITLE "Тройка" PERFORMER "The LEGE ARTIS - B.Abalian" FLAGS DCP INDEX 01 47:15:62 TRACK 26 AUDIO TITLE "С.Слонимский - Две русские песни: Печальное сердце моё" PERFORMER "The LEGE ARTIS - B.Abalian" FLAGS DCP INDEX 01 51:55:47 TRACK 27 AUDIO TITLE "Люби жену, да не бей" PERFORMER "The LEGE ARTIS - B.Abalian" FLAGS DCP INDEX 01 55:47:12 TRACK 28 AUDIO TITLE "В.Калистратов - Таня-Танюша" PERFORMER "The LEGE ARTIS - B.Abalian" FLAGS DCP INDEX 01 58:23:17
[teatrix.ru].t8022.torrent 
Торрент: Зарегистрирован [ 2015-10-14 02:49 ] · 2A8F1F291D5A2B1FF43DCCED53286B86F4E06046

Скачать .torrent

Скачать

19 KB

Статус: проверено
Скачан: 0 раз
Размер: 230 MB
terms.php



Быстрый ответ

Имя:

      
Для отправки сообщений необходимо включить JavaScript
Показать сообщения:    

Текущее время: 06-Дек 20:56

Часовой пояс: UTC + 3


Вы можете начинать темы
Вы можете отвечать на сообщения
Вы не можете редактировать свои сообщения
Вы не можете удалять свои сообщения
Вы не можете голосовать в опросах
Вы не можете прикреплять файлы к сообщениям
Вы можете скачивать файлы