(Oratorio) Martinu - Epos O Gilgamesovi/The Epic of Gilgamesh (Prusa, Zahradnicek, Zitek, Machotkova - Belohlavek 1976) - 2007, APE (image+.cue) lossless

DL-List and Torrent activity [Update пиров]
Size:  233 MB   |    Registered:  1 year   |    Completed:  1 time

Seeder not seen: 4 months 14 days



Martinu - Epos O Gilgamesovi/The Epic of Gilgamesh
Жанр: Oratorio
Страна-производитель диска: Czech
Год издания диска: 2007
Издатель (лейбл): Supraphon
Номер по каталогу: SU 3918-2 231
Дата записи: 1976
Аудиокодек: APE
Тип рипа: image+.cue
Битрейт аудио: lossless
Продолжительность: 57'00
Источник: собственный рип
Наличие сканов в содержимом раздачи: да
1. Gilgamesh (Tablets 1, 2) 00:19:02
2. The Death of Enkidu Gilgamesh (Tablets 7, 8, 10) 00:19:20
3. Invocation Gilgamesh (Tablet 12) 00:19:13Исполнители:
Bohuslav Martinu (1890-1959) - The Epic of Gilgamesh
Cantata on the Words of the Old-Babylonian Epic for Soloists, Speaker, Mixed Chorus and Orchestra, H. 351
original lyrics by Reginald Cambell Thompson
Otakar Brousek, recitation
Karel Prusa, bass
Jiri Zahradnicek, tenor
Vaclav Zitek, baritone
Marcela Machotkova, soprano
Prague Philharmonic Choir
Josef Veselka
Prague Symphony Orchestra
Jiri Belohlavek

Лог создания рипа

Exact Audio Copy V1.0 beta 3 from 29. August 2011
EAC extraction logfile from 14. October 2013, 17:47
Martinu / The Epic of Gilgamesh, Belohlavek 1976
Used drive : TSSTcorpCDDVDW SE-208AB Adapter: 1 ID: 0
Read mode : SecureUtilize accurate stream : YesDefeat audio cache : YesMake use of C2 pointers : No
Read offset correction : 6Overread into Lead-In and Lead-Out : NoFill up missing offset samples with silence : YesDelete leading and trailing silent blocks : NoNull samples used in CRC calculations : YesUsed interface : Native Win32 interface for Win NT & 2000
Used output format : Monkey's Audio Lossless EncoderSelected bitrate : High Lossless CompressionQuality : HighAdd ID3 tag : YesCommand line compressor : K:\Program Files (x86)\Exact Audio Copy\Monkeys Audio\Monkey's Audio\MAC.exeAdditional command line options : -6 -V -T "ARTIST=%artist%" -T "TITLE=%title%" -T "ALBUM=%albumtitle%" -T "DATE=%year%" -T "TRACKNUMBER=%tracknr%" -T "GENRE=%genre%" -T "COMMENT=%comment%" -T "BAND=%albuminterpret%" -T "ALBUMARTIST=%albuminterpret%" -T "COMPOSER=%composer%" %haslyrics%--tag-from-file=LYRICS="%lyricsfile%"%haslyrics% -T "DISCNUMBER=%cdnumber%" -T "TOTALDISCS=%totalcds%" -T "TOTALTRACKS=%numtracks%" %hascover%--picture="%coverfile%"%hascover% %source% -o %dest%
TOC of the extracted CD
Track | Start | Length | Start sector | End sector --------------------------------------------------------- 1 | 0:00.32 | 19:10.25 | 32 | 86306 2 | 19:10.57 | 19:27.00 | 86307 | 173831 3 | 38:37.57 | 19:13.25 | 173832 | 260331
Range status and errors
Selected range
Filename I:\Foobar-EAC\Martinu - The Epic of Gilgamesh, Belohlavek 1976.wav
Peak level 80.2 % Extraction speed 4.5 X Range quality 99.9 % Test CRC C1DA19B0 Copy CRC C1DA19B0 Copy OK
No errors occurred
AccurateRip summary
Track 1 accurately ripped (confidence 3) [E7100128] (AR v1)Track 2 accurately ripped (confidence 3) [9F49F66E] (AR v1)Track 3 accurately ripped (confidence 3) [B6DEA619] (AR v1)
All tracks accurately ripped
End of status report
---- CUETools DB Plugin V2.1.3
[CTDB TOCID: pzrPayM.4kAHnxJDqVdxQVEa7uk-] disk not present in database, Submit result: database access error: ExpectationFailed
==== Log checksum 88BBEA2CD22B0CA2E09980C6654CB799EBED26596466800F6F07AA46F3DE6050 ====

Содержание индексной карты (.CUE)

REM GENRE ChoralREM DATE 1976REM DISCID 1A0D8F03REM COMMENT "ExactAudioCopy v1.0b3"PERFORMER "Martinu"TITLE "The Epic of Gilgamesh, Belohlavek 1976"FILE "Martinu - The Epic of Gilgamesh, Belohlavek 1976.ape" WAVE TRACK 01 AUDIO TITLE "Gilgamesh (Tablets 1, 2)" PERFORMER "Martinu" INDEX 00 00:00:00 INDEX 01 00:00:32 TRACK 02 AUDIO TITLE "The Death of Enkidu (Tablets 7, 8, 10)" PERFORMER "Martinu" INDEX 00 19:03:00 INDEX 01 19:10:57 TRACK 03 AUDIO TITLE "Invocation (Tablet 12)" PERFORMER "Martinu" INDEX 00 38:31:42 INDEX 01 38:37:57
Доп. информация:
Jiri Belohlavek is a world-renowned conductor of the works of Bohuslav Martinu, including the symphonic, operatic, oratorio and cantata literature.
Martinu's oratorio The Epic of Gilgamesh (1955) is unusual and, in a way, unique in all the international literature, as exciting and mysterious as the ancient tale on which it is based.
The epic, one of the oldest extant examples of written culture, dates back to the beginning of Babylon, and Martinu devoted a number of years to the study of its philosophical basis before beginning to set to music Thompson's translation of its Neoassyrian version.
Martinu's conception and execution are truly ingenious making use of early Baroque forms. Outstanding performances by the soloists, chorus and orchestra enhance the unrepeatable atmosphere of this masterful work.
Torrent: Registered [ 2015-10-14 02:49 ] · F88AA5451E30E3ACE7F9C462B1A4AC4A56399EE5

Download .torrent


19 KB

Status: checked
Completed: 1 times
Size: 233 MB

Quick Reply


Heads necessary to send messages to enable JavaScript
Display posts:    

Current time is: 22-Oct 02:43

All times are UTC + 3

You can post new topics in this forum
You can reply to topics in this forum
You cannot edit your posts in this forum
You cannot delete your posts in this forum
You cannot vote in polls in this forum
You cannot attach files in this forum
You can download files in this forum