(Sacred) Karol Szymanowski & Francis Poulenc - Stabat Mater [+Gregorian Chant] (Christine Goerke, Marietta Simpson, Victor Ledbetter, Atlanta Symphony Orchestra & Chorus, Robert Shaw) - 1994, FLAC (image+.cue) lossless


Статистика раздачи [Обновить пиров]
Размер:  227 MB   |    Зарегистрирован:  1 год 1 месяц   |    Скачан:  0 раз

Полного источника не было: Никогда

 
   
 
 
 

[Цитировать]

Karol Szymanowski - Stabat Mater
Francis Poulenc - Stabat Mater

Atlanta Symphony Orchestra & Chorus, Robert Shaw
Жанр: Sacred
Страна-производитель диска: USA
Год издания диска: 1994
Издатель (лейбл): Telarc
Номер по каталогу: 80362
Дата записи: 1993
Аудиокодек: FLAC
Тип рипа: image+.cue
Битрейт аудио: lossless
Продолжительность: 58:23
Источник: собственный рип
Наличие сканов в содержимом раздачи: да
Треклист:
1. Gregorian Chant: Stabat Mater dolorosa (six verses) 1:44
2. Szymanowski: Stabat Mater: I. Stala Matka bolejaca 6:51
3. II. I ktoz widzac tak cierpiaca 3:10
4. III. O Matko, zrodlo wszechmilosci 4:24
5. IV. Spraw niech placze z Toba razem 3:10
6. V. Niechaj pod nim razem stoje 3:11
7. VI. Chrystus niech mi bedzie grodem 6:03
8. Poulenc: Stabat Mater: I. Stabat Mater dolorosa 3:51
9. II. Cujus animam gementem 1:02
10. III. O quam tristis 2:29
11. IV. Quae moerebat 1:29
12. V. Quis est homo 1:19
13. VI. Vidit suum 3:28
14. VII. Eja Mater 1:08
15. VIII. Fac ut ardeat 2:10
16. IX. Sancta Mater 3:12
17. X. Fac ut portem 3:15
18. XI. Inflammatus et accensus 1:48
19. XII. Quando corpus 4:12
Исполнители:
Christine Goerke - soprano
Marietta Simpson - mezzo-soprano
Victor Ledbetter - baritone
Atlanta Symphony Orchestra & Chorus
Robert Shaw - conductor

Лог создания рипа

Exact Audio Copy V1.0 beta 3 from 29. August 2011
EAC extraction logfile from 13. September 2013, 21:01
Robert Shaw, Atlanta Symphony Orcestra and Chorus / Stabat Mater
Used drive : TSSTcorp CDDVDW Adapter: 0 ID: 0
Read mode : SecureUtilize accurate stream : YesDefeat audio cache : YesMake use of C2 pointers : No
Read offset correction : 6Overread into Lead-In and Lead-Out : NoFill up missing offset samples with silence : YesDelete leading and trailing silent blocks : NoNull samples used in CRC calculations : YesUsed interface : Installed external ASPI interface
Used output format : User Defined EncoderSelected bitrate : 768 kBit/sQuality : HighAdd ID3 tag : NoCommand line compressor : C:\Program Files (x86)\Exact Audio Copy\FLAC\FLAC.EXEAdditional command line options : -6 -V -T "ARTIST=%artist%" -T "TITLE=%title%" -T "ALBUM=%albumtitle%" -T "DATE=%year%" -T "TRACKNUMBER=%tracknr%" -T "GENRE=%genre%" -T "COMMENT=%comment%" -T "BAND=%albuminterpret%" -T "ALBUMARTIST=%albuminterpret%" -T "COMPOSER=%composer%" %haslyrics%--tag-from-file=LYRICS="%lyricsfile%"%haslyrics% -T "DISCNUMBER=%cdnumber%" -T "TOTALDISCS=%totalcds%" -T "TOTALTRACKS=%numtracks%" %hascover%--picture="%coverfile%"%hascover% %source% -o %dest%
TOC of the extracted CD
Track | Start | Length | Start sector | End sector --------------------------------------------------------- 1 | 0:00.00 | 1:46.25 | 0 | 7974 2 | 1:46.25 | 6:52.60 | 7975 | 38934 3 | 8:39.10 | 3:12.25 | 38935 | 53359 4 | 11:51.35 | 4:25.62 | 53360 | 73296 5 | 16:17.22 | 3:09.03 | 73297 | 87474 6 | 19:26.25 | 3:12.60 | 87475 | 101934 7 | 22:39.10 | 6:04.45 | 101935 | 129279 8 | 28:43.55 | 3:53.17 | 129280 | 146771 9 | 32:36.72 | 1:03.13 | 146772 | 151509 10 | 33:40.10 | 2:29.67 | 151510 | 162751 11 | 36:10.02 | 1:30.10 | 162752 | 169511 12 | 37:40.12 | 1:20.73 | 169512 | 175584 13 | 39:01.10 | 3:30.02 | 175585 | 191336 14 | 42:31.12 | 1:09.15 | 191337 | 196526 15 | 43:40.27 | 2:08.70 | 196527 | 206196 16 | 45:49.22 | 3:13.65 | 206197 | 220736 17 | 49:03.12 | 3:16.60 | 220737 | 235496 18 | 52:19.72 | 1:50.00 | 235497 | 243746 19 | 54:09.72 | 4:13.13 | 243747 | 262734
Range status and errors
Selected range
Filename C:\RIP\Szymanowski & Poulenc - Stabat Mater.wav
Peak level 100.0 % Extraction speed 2.9 X Range quality 99.9 % Test CRC 89416B20 Copy CRC 89416B20 Copy OK
No errors occurred
AccurateRip summary
Track 1 not present in databaseTrack 2 not present in databaseTrack 3 not present in databaseTrack 4 not present in databaseTrack 5 not present in databaseTrack 6 not present in databaseTrack 7 not present in databaseTrack 8 not present in databaseTrack 9 not present in databaseTrack 10 not present in databaseTrack 11 not present in databaseTrack 12 not present in databaseTrack 13 not present in databaseTrack 14 not present in databaseTrack 15 not present in databaseTrack 16 not present in databaseTrack 17 not present in databaseTrack 18 not present in databaseTrack 19 not present in database
None of the tracks are present in the AccurateRip database
End of status report
==== Log checksum 7FBD9199DF7029B0E289626F0C741E6C9B17AB03B8301AE92C4F0A53A24E5916 ====
[teatrix.ru].t8024.torrent 
Торрент: Зарегистрирован [ 2015-10-14 02:49 ] · 095ECC7D70DEAA2BBB09247B2E6A25B5E82334D8

Скачать .torrent

Скачать

19 KB

Статус: проверено
Скачан: 0 раз
Размер: 227 MB
terms.php



Быстрый ответ

Имя:

      
Для отправки сообщений необходимо включить JavaScript
Показать сообщения:    

Текущее время: 08-Дек 14:58

Часовой пояс: UTC + 3


Вы можете начинать темы
Вы можете отвечать на сообщения
Вы не можете редактировать свои сообщения
Вы не можете удалять свои сообщения
Вы не можете голосовать в опросах
Вы не можете прикреплять файлы к сообщениям
Вы можете скачивать файлы