(Classical, sacred) Jan Dismas Zelenka - Sacred Music - Sampson, Outram, Blaze, Gilchrist, George, Harvey; The King\'s Consort, Robert King - 2012, FLAC (image+.cue) lossless


Статистика раздачи [Обновить пиров]
Размер:  284 MB   |    Зарегистрирован:  1 год 1 месяц   |    Скачан:  0 раз

Полного источника не было: Никогда

 
   
 
 
 

[Цитировать]

Jan Dismas Zelenka - Sacred Music - Sampson, Outram, Blaze, Gilchrist, George, Harvey; The King's Consort, Robert King
Жанр: Classical, sacred
Страна-производитель диска: UK
Год издания диска: 2012
Издатель (лейбл): Hyperion
Номер по каталогу: CDH55424
Дата записи: 2002
Аудиокодек: FLAC
Тип рипа: image+.cue
Битрейт аудио: lossless
Продолжительность: 73:52
Источник: собственный рип
Наличие сканов в содержимом раздачи: да
Треклист:
Jan Dismas Zelenka (1679-1745)
[1]-[11] Litaniae de Venerabili Sacramento, Z 147
[12] Regina caeli laetare, Z 134
[13]-[17] Salve regina, Z 135
[18]-[20] Lectiones from Officium Defunctorum, Z 47
[21] Invitatorium from Officium Defunctorum, Z 47
Исполнители:
Carolyn Sampson soprano
Rebecca Outram soprano
Robin Blaze countertenor
James Gilchrist tenor
Michael George bass
Peter Harvey bass
The King's Consort
Robert King
conductor

Лог создания рипа

Exact Audio Copy V1.0 beta 3 from 29. August 2011
EAC extraction logfile from 28. September 2013, 18:17
The King's Consort, Robert King / Zelenka - Sacred Music
Used drive : HL-DT-STDVDRAM GSA-4083N Adapter: 1 ID: 0
Read mode : SecureUtilize accurate stream : YesDefeat audio cache : YesMake use of C2 pointers : No
Read offset correction : 667Overread into Lead-In and Lead-Out : NoFill up missing offset samples with silence : YesDelete leading and trailing silent blocks : NoNull samples used in CRC calculations : YesUsed interface : Native Win32 interface for Win NT & 2000
Used output format : User Defined EncoderSelected bitrate : 896 kBit/sQuality : HighAdd ID3 tag : NoCommand line compressor : C:\Program Files\Exact Audio Copy\Flac\flac.exeAdditional command line options : -V -8 %source%
TOC of the extracted CD
Track | Start | Length | Start sector | End sector --------------------------------------------------------- 1 | 0:00.00 | 1:12.05 | 0 | 5404 2 | 1:12.05 | 1:53.15 | 5405 | 13894 3 | 3:05.20 | 3:43.30 | 13895 | 30649 4 | 6:48.50 | 2:12.23 | 30650 | 40572 5 | 9:00.73 | 2:16.08 | 40573 | 50780 6 | 11:17.06 | 0:52.26 | 50781 | 54706 7 | 12:09.32 | 1:17.12 | 54707 | 60493 8 | 13:26.44 | 2:05.71 | 60494 | 69939 9 | 15:32.40 | 2:38.42 | 69940 | 81831 10 | 18:11.07 | 0:36.09 | 81832 | 84540 11 | 18:47.16 | 2:06.18 | 84541 | 94008 12 | 20:53.34 | 3:51.00 | 94009 | 111333 13 | 24:44.34 | 5:25.09 | 111334 | 135717 14 | 30:09.43 | 3:16.72 | 135718 | 150489 15 | 33:26.40 | 4:05.26 | 150490 | 168890 16 | 37:31.66 | 1:11.66 | 168891 | 174281 17 | 38:43.57 | 5:01.31 | 174282 | 196887 18 | 43:45.13 | 6:47.00 | 196888 | 227412 19 | 50:32.13 | 5:14.43 | 227413 | 251005 20 | 55:46.56 | 4:59.42 | 251006 | 273472 21 | 60:46.23 | 13:06.03 | 273473 | 332425
Range status and errors
Selected range
Filename J:\New Music\Zelenka - Sacred Music\Zelenka - Sacred Music.wav
Peak level 98.7 % Extraction speed 2.8 X Range quality 100.0 % Test CRC BBC2420D Copy CRC BBC2420D Copy OK
No errors occurred
End of status report
==== Log checksum 131E89F6C6F269C2A1E751F49FC8131AD17E85C8C5D1F6F0ACF1DC08C89A4249 ====
[teatrix.ru].t8025.torrent 
Торрент: Зарегистрирован [ 2015-10-14 02:49 ] · 7A33A7E3DEF9951CE0D5FD2D0F8CB01B029346EE

Скачать .torrent

Скачать

23 KB

Статус: проверено
Скачан: 0 раз
Размер: 284 MB
terms.php



Быстрый ответ

Имя:

      
Для отправки сообщений необходимо включить JavaScript
Показать сообщения:    

Текущее время: 03-Дек 07:38

Часовой пояс: UTC + 3


Вы можете начинать темы
Вы можете отвечать на сообщения
Вы не можете редактировать свои сообщения
Вы не можете удалять свои сообщения
Вы не можете голосовать в опросах
Вы не можете прикреплять файлы к сообщениям
Вы можете скачивать файлы