(Classical/Choral) Альфред Шнитке - Концерт для смешанного хора, Две маленькие пьесы для органа (Елена Доф-Донская, Государственный камерный хор Министерства культуры СССР, Валерий Полянский, Олег Янченко) - 1990, FLAC (image+.cue) lossless


Статистика раздачи [Обновить пиров]
Размер:  185 MB   |    Зарегистрирован:  1 год 1 месяц   |    Скачан:  0 раз

Полного источника не было: Никогда

 
   
 
 
 

[Цитировать]

Альфред Шнитке - Концерт для смешанного хора, Две маленькие пьесы для органа
Елена Доф-Донская, Государственный камерный хор Министерства культуры СССР, Валерий Полянский, Олег Янченко

Жанр: Classical/Choral
Страна-производитель диска: СССР
Год издания диска: 1990
Издатель (лейбл): Грамзапись
Номер по каталогу: GCD 00066
Дата записи: 1988
Аудиокодек: FLAC
Тип рипа: image+.cue
Битрейт аудио: lossless
Продолжительность: 51.46
Источник: собственный рип
Наличие сканов в содержимом раздачи: да
Треклист:
Альфред Шнитке (1934-1998)
Концерт для смешанного хора в четырех частях (1984-85)
на стихи Григора Нарекаци (ок. 951 — 1003), "Книга скорбных песнопений", глава III
перевод Наума Гребнева
[1] I. "О, Повелитель сущего всего, бесценными дарами нас дарящий…" [0:17:12.00]
[2] II. "Собранье песен сих, где каждый стих наполнен скорбью чёрною до края…" [0:08:37.25]
[3] III. "Всем тем, кто вникнет в сущность скорбных слов…" [0:11:57.00]
[4] IV. "Сей труд, что начинал я с упованьем и с именем Твоим…" [0:06:09.37]
Две маленькие пьесы для органа (1980)
[5] I. [0:04:28.25]
[6] II. [0:03:47.13]
Исполнители:
Елена Доф-Донская, сопрано
Государственный камерный хор Министерства культуры СССР
Дирижер - Валерий Полянский [1-4]
Олег Янченко, орган [5-6]

Лог создания рипа

Exact Audio Copy V1.0 beta 3 from 29. August 2011
Отчёт EAC об извлечении, выполненном 27. сентября 2013, 21:37
USSR Ministry of Culture Chamber Choir, Valeri Polyansky / Concerto for Choir / Two Small Pieces for Organ
Дисковод: HL-DT-STDVDRAM GT33N Adapter: 1 ID: 0
Режим чтения : ДостоверностьИспользование точного потока : ДаОтключение кэша аудио : ДаИспользование указателей C2 : Нет
Коррекция смещения при чтении : 103Способность читать области Lead-in и Lead-out : НетЗаполнение пропущенных сэмплов тишиной : ДаУдаление блоков с тишиной в начале и конце : НетПри вычислениях CRC использовались нулевые сэмплы : ДаИнтерфейс : Встроенный Win32-интерфейс для Win NT/2000
Выходной формат : Пользовательский кодировщикВыбранный битрейт : 1024 kBit/sКачество : ВысокийДобавление ID3-тега : ДаУтилита сжатия : C:\Program Files (x86)\Exact Audio Copy\Flac\flac.exeДополнительные параметры : -8 -V -T "ALBUMARTIST=%albumartist%" -T "ALBUM=%albumtitle%" -T "DATE=%year%" -T "TRACKTOTAL=%numtracks%" -T "GENRE=%genre%" -T "COMMENT=%comment%" -T "PERFORMER=%albuminterpret%" -T "COMPOSER=%composer%" %source% -o %dest%
TOC извлечённого CD
Трек | Старт | Длительность | Начальный сектор | Конечный сектор --------------------------------------------------------------------- 1 | 0:00.00 | 17:12.00 | 0 | 77399 2 | 17:12.00 | 8:37.25 | 77400 | 116199 3 | 25:49.25 | 11:57.00 | 116200 | 169974 4 | 37:46.25 | 6:09.37 | 169975 | 197686 5 | 43:55.62 | 4:28.25 | 197687 | 217811 6 | 48:24.12 | 3:47.13 | 217812 | 234849
Характеристики диапазона извлечения и сообщения об ошибках
Выбранный диапазон
Имя файла O:\!Rips\Concerto for Choir, Two Small Pieces for Organ.wav
Пиковый уровень 86.7 % Скорость извлечения 2.1 X Качество диапазона 100.0 % CRC теста 55C6F10C CRC копии 55C6F10C Копирование... OK
Ошибок не произошло
AccurateRip: сводка
Трек 1 : извлечено точно (доверие 2) [1C3A1B82] (AR v2)Трек 2 : извлечено точно (доверие 2) [0D3BA844] (AR v2)Трек 3 : извлечено точно (доверие 2) [D89B8558] (AR v2)Трек 4 : извлечено точно (доверие 2) [D0DFB2D7] (AR v2)Трек 5 : извлечено точно (доверие 2) [F523F13F] (AR v2)Трек 6 : извлечено точно (доверие 2) [50BC8DDC] (AR v2)
Все треки извлечены точно
Конец отчёта
==== Контрольная сумма отчёта 68964A3CB5EE9A5D9F056646A9D8AE0A14225159EB617DF60FAE3E2ED482E6AA ====

Содержание индексной карты (.CUE)

REM GENRE ChoralREM DATE 1990REM DISCID 4B0C3B06REM COMMENT "ExactAudioCopy v1.0b3"PERFORMER "USSR Ministry of Culture Chamber Choir, Valeri Polyansky"TITLE "Concerto for Choir / Two Small Pieces for Organ"FILE "Concerto for Choir, Two Small Pieces for Organ.flac" WAVE TRACK 01 AUDIO TITLE "Concerto for Choir: I. O Thee, the Sovereign of Everything Existing, Who Gives Us Precious Gifts" PERFORMER "USSR Ministry of Culture Chamber Choir, Valeri Polyansky" INDEX 01 00:00:00 TRACK 02 AUDIO TITLE "Concerto for Choir: II. Collected Songs Where Every Verse Is Full of Grief" PERFORMER "USSR Ministry of Culture Chamber Choir, Valeri Polyansky" INDEX 00 17:07:25 INDEX 01 17:12:00 TRACK 03 AUDIO TITLE "Concerto for Choir: III. For Those Who'll Deeply Go Into the Meaning of the Mournful Words, for Those Who'll Perceive the Essence of Creation" PERFORMER "USSR Ministry of Culture Chamber Choir, Valeri Polyansky" INDEX 00 25:43:25 INDEX 01 25:49:25 TRACK 04 AUDIO TITLE "Concerto for Choir: IV. This Work Which I Begin With Hope and Name of Thee" PERFORMER "USSR Ministry of Culture Chamber Choir, Valeri Polyansky" INDEX 00 37:45:25 INDEX 01 37:46:25 TRACK 05 AUDIO TITLE "Two Small Pieces for Organ: I." PERFORMER "Oleg Yanchenko" INDEX 00 43:51:37 INDEX 01 43:55:62 TRACK 06 AUDIO TITLE "Two Small Pieces for Organ: II." PERFORMER "Oleg Yanchenko" INDEX 00 48:20:50 INDEX 01 48:24:12
Доп. информация: Эталонное и непревзойденное исполнение и запись Концерта для хора Альфреда Шнитке, сделанная в Софийском соборе г. Полоцка Валерием Полянским с Государственным камерным хором Министерства культуры СССР (впоследствии, с 1991 г. - Государственная академическая симфоническая капелла России) в 1988 году.
Звукорежиссеры: Игорь Вепринцев, Елена Бунеева
[teatrix.ru].t8026.torrent 
Торрент: Зарегистрирован [ 2015-10-14 02:49 ] · 61BCC9E05263169E2B4C9C93C73138DA3D5D672C

Скачать .torrent

Скачать

30 KB

Статус: проверено
Скачан: 0 раз
Размер: 185 MB
terms.php



Быстрый ответ

Имя:

      
Для отправки сообщений необходимо включить JavaScript
Показать сообщения:    

Текущее время: 11-Дек 11:02

Часовой пояс: UTC + 3


Вы можете начинать темы
Вы можете отвечать на сообщения
Вы не можете редактировать свои сообщения
Вы не можете удалять свои сообщения
Вы не можете голосовать в опросах
Вы не можете прикреплять файлы к сообщениям
Вы можете скачивать файлы