(Classical/Choral) Гия Канчели - Стикс/Giya Kancheli - Styx; John Tavener - The Myrrh-Bearer (Максим Рысанов/Rysanov, Liepaja Symphony Orchestra, Kamer Choir, State Choir Latvija, Richards Zalupe, Maris Sirmais) - 2007, FLAC (image+.cue) lossless


Статистика раздачи [Обновить пиров]
Размер:  324 MB   |    Зарегистрирован:  1 год 1 месяц   |    Скачан:  0 раз

Полного источника не было: Никогда

 
   
 
 
 

[Цитировать]

Гия Канчели - Стикс / Giya Kancheli - Styx; John Tavener - The Myrrh-Bearer
Максим Рысанов, Liepāja Symphony Orchestra, Kamēr... Choir, State Choir Latvija, Richards Zaļupe, Māris Sirmais

Жанр: Classical/Choral
Страна-производитель диска: EU
Год издания диска: 2007
Издатель (лейбл): Onyx
Номер по каталогу: 4023
Дата записи: 2006
Аудиокодек: FLAC
Тип рипа: image+.cue
Битрейт аудио: lossless
Продолжительность: 77'42
Источник: собственный рип
Наличие сканов в содержимом раздачи: да
Треклист:
Гия Канчели / Giya Kancheli (1935-)
[1] - [7] Стикс / Styx (1999) [35:46]
для альта, смешанного хора и оркестра / for viola, mixed choir and orchestra
John Tavener (1944-)
[8] - [13] The Myrrh-Bearer / Мироносица (1993) [41:56]
for viola, chorus and percussion
World premiere recording
Исполнители:
Максим Рысанов, альт / Maxim Rysanov, viola
Liepāja Symphony Orchestra
Kamēr... Choir
Men of the State Choir Latvija (8-13)
Richards Zaļupe percussion (8-13)
Māris Sirmais conductor

Лог создания рипа

Exact Audio Copy V1.0 beta 3 from 29. August 2011
Отчёт EAC об извлечении, выполненном 29. сентября 2013, 5:37
Maxim Rysanov, Liepaja Symphony Orchestra, Maris Sirmais / Kancheli: Styx; Tavener: The Myrrh-Bearer
Дисковод: HL-DT-STDVDRAM GT33N Adapter: 1 ID: 0
Режим чтения : ДостоверностьИспользование точного потока : ДаОтключение кэша аудио : ДаИспользование указателей C2 : Нет
Коррекция смещения при чтении : 103Способность читать области Lead-in и Lead-out : НетЗаполнение пропущенных сэмплов тишиной : ДаУдаление блоков с тишиной в начале и конце : НетПри вычислениях CRC использовались нулевые сэмплы : ДаИнтерфейс : Встроенный Win32-интерфейс для Win NT/2000
Выходной формат : Пользовательский кодировщикВыбранный битрейт : 1024 kBit/sКачество : ВысокийДобавление ID3-тега : ДаУтилита сжатия : C:\Program Files (x86)\Exact Audio Copy\Flac\flac.exeДополнительные параметры : -8 -V -T "ALBUMARTIST=%albumartist%" -T "ALBUM=%albumtitle%" -T "DATE=%year%" -T "TRACKTOTAL=%numtracks%" -T "GENRE=%genre%" -T "COMMENT=%comment%" -T "PERFORMER=%albuminterpret%" -T "COMPOSER=%composer%" %source% -o %dest%
TOC извлечённого CD
Трек | Старт | Длительность | Начальный сектор | Конечный сектор --------------------------------------------------------------------- 1 | 0:00.00 | 6:20.15 | 0 | 28514 2 | 6:20.15 | 4:07.43 | 28515 | 47082 3 | 10:27.58 | 4:28.28 | 47083 | 67210 4 | 14:56.11 | 4:59.31 | 67211 | 89666 5 | 19:55.42 | 6:27.14 | 89667 | 118705 6 | 26:22.56 | 4:21.49 | 118706 | 138329 7 | 30:44.30 | 5:06.45 | 138330 | 161324 8 | 35:51.00 | 8:29.57 | 161325 | 199556 9 | 44:20.57 | 8:15.50 | 199557 | 236731 10 | 52:36.32 | 6:26.46 | 236732 | 265727 11 | 59:03.03 | 6:15.53 | 265728 | 293905 12 | 65:18.56 | 8:43.15 | 293906 | 333145 13 | 74:01.71 | 3:53.03 | 333146 | 350623
Характеристики диапазона извлечения и сообщения об ошибках
Выбранный диапазон
Имя файла O:\!Rips\Kancheli - Styx; Tavener - The Myrrh-Bearer.wav
Пиковый уровень 97.7 % Скорость извлечения 2.3 X Качество диапазона 100.0 % CRC теста 74832EED CRC копии 74832EED Копирование... OK
Ошибок не произошло
AccurateRip: сводка
Трек 1 : извлечено точно (доверие 4) [AC74E58C] (AR v2)Трек 2 : извлечено точно (доверие 4) [4D7191DC] (AR v2)Трек 3 : извлечено точно (доверие 4) [E004B0DC] (AR v2)Трек 4 : извлечено точно (доверие 4) [1884E53B] (AR v2)Трек 5 : извлечено точно (доверие 4) [C6D7177A] (AR v2)Трек 6 : извлечено точно (доверие 4) [8364114C] (AR v2)Трек 7 : извлечено точно (доверие 4) [BEAF5BCE] (AR v2)Трек 8 : извлечено точно (доверие 4) [3AAF5910] (AR v2)Трек 9 : извлечено точно (доверие 4) [F36E3FC4] (AR v2)Трек 10 : извлечено точно (доверие 4) [D8B8FB21] (AR v2)Трек 11 : извлечено точно (доверие 4) [7CC171C9] (AR v2)Трек 12 : извлечено точно (доверие 4) [1C79F0A5] (AR v2)Трек 13 : извлечено точно (доверие 4) [4D390B60] (AR v2)
Все треки извлечены точно
Конец отчёта
==== Контрольная сумма отчёта EF648B246EC3F6E91D4C9B8CA2844CB598EF77735366BEF26AD0CD9B4B507890 ====

Содержание индексной карты (.CUE)

REM GENRE ChoralREM DATE 2007REM DISCID CA12420DREM COMMENT "ExactAudioCopy v1.0b3"PERFORMER "Maxim Rysanov, Liepaja Symphony Orchestra, Maris Sirmais"TITLE "Kancheli: Styx; Tavener: The Myrrh-Bearer"FILE "Kancheli - Styx; Tavener - The Myrrh-Bearer.flac" WAVE TRACK 01 AUDIO TITLE "Giya Kancheli - Styx Pt. 1" PERFORMER "Maxim Rysanov, Liepaja Symphony Orchestra, Maris Sirmais" FLAGS DCP INDEX 01 00:00:00 TRACK 02 AUDIO TITLE "Styx Pt. 2" PERFORMER "Maxim Rysanov, Liepaja Symphony Orchestra, Maris Sirmais" FLAGS DCP INDEX 01 06:20:15 TRACK 03 AUDIO TITLE "Styx Pt. 3" PERFORMER "Maxim Rysanov, Liepaja Symphony Orchestra, Maris Sirmais" FLAGS DCP INDEX 01 10:27:58 TRACK 04 AUDIO TITLE "Styx Pt. 4" PERFORMER "Maxim Rysanov, Liepaja Symphony Orchestra, Maris Sirmais" FLAGS DCP INDEX 01 14:56:11 TRACK 05 AUDIO TITLE "Styx Pt. 5" PERFORMER "Maxim Rysanov, Liepaja Symphony Orchestra, Maris Sirmais" FLAGS DCP INDEX 01 19:55:42 TRACK 06 AUDIO TITLE "Styx Pt. 6" PERFORMER "Maxim Rysanov, Liepaja Symphony Orchestra, Maris Sirmais" FLAGS DCP INDEX 01 26:22:56 TRACK 07 AUDIO TITLE "Styx Pt. 7" PERFORMER "Maxim Rysanov, Liepaja Symphony Orchestra, Maris Sirmais" FLAGS DCP INDEX 01 30:44:30 TRACK 08 AUDIO TITLE "John Tavener - The Myrrh-Bearer Pt. 1" PERFORMER "Maxim Rysanov, Liepaja Symphony Orchestra, Maris Sirmais" FLAGS DCP INDEX 01 35:51:00 TRACK 09 AUDIO TITLE "The Myrrh-Bearer Pt. 2" PERFORMER "Maxim Rysanov, Liepaja Symphony Orchestra, Maris Sirmais" FLAGS DCP INDEX 01 44:20:57 TRACK 10 AUDIO TITLE "The Myrrh-Bearer Pt. 3" PERFORMER "Maxim Rysanov, Liepaja Symphony Orchestra, Maris Sirmais" FLAGS DCP INDEX 01 52:36:32 TRACK 11 AUDIO TITLE "The Myrrh-Bearer Pt. 4" PERFORMER "Maxim Rysanov, Liepaja Symphony Orchestra, Maris Sirmais" FLAGS DCP INDEX 01 59:03:03 TRACK 12 AUDIO TITLE "The Myrrh-Bearer Pt. 5" PERFORMER "Maxim Rysanov, Liepaja Symphony Orchestra, Maris Sirmais" FLAGS DCP INDEX 01 65:18:56 TRACK 13 AUDIO TITLE "The Myrrh-Bearer Pt. 6" PERFORMER "Maxim Rysanov, Liepaja Symphony Orchestra, Maris Sirmais" FLAGS DCP INDEX 01 74:01:71
[teatrix.ru].t8027.torrent 
Торрент: Зарегистрирован [ 2015-10-14 02:49 ] · 30E3C60C5C9F04804BB917EC27C8D5AFA687FAA7

Скачать .torrent

Скачать

52 KB

Статус: проверено
Скачан: 0 раз
Размер: 324 MB
terms.php



Быстрый ответ

Имя:

      
Для отправки сообщений необходимо включить JavaScript
Показать сообщения:    

Текущее время: 10-Дек 08:06

Часовой пояс: UTC + 3


Вы можете начинать темы
Вы можете отвечать на сообщения
Вы не можете редактировать свои сообщения
Вы не можете удалять свои сообщения
Вы не можете голосовать в опросах
Вы не можете прикреплять файлы к сообщениям
Вы можете скачивать файлы