(Classical, sacred) Passiontide at St Paul\'s: Farrant, Mendelssohn, Bairstow, Bruckner, Gibbons, Britten, Philips, Lotti, Wood, Chapple - The Choir of St Paul\'s Cathedral, John Scott - 2012, FLAC (image+.cue) lossless


Статистика раздачи [Обновить пиров]
Размер:  216 MB   |    Зарегистрирован:  1 год 1 месяц   |    Скачан:  1 раз

Полного источника не было: 5 месяцев 16 дней

 
   
 
 
 

[Цитировать]

Passiontide at St Paul's: Farrant, Mendelssohn, Bairstow, Bruckner, Gibbons, Britten, Philips, Lotti, Wood, Chapple - The Choir of St Paul's Cathedral, John Scott
Жанр: Classical, sacred
Страна-производитель диска: UK
Год издания диска: 2012
Издатель (лейбл): Hyperion
Номер по каталогу: CDH55436
Дата записи: 1996
Аудиокодек: FLAC
Тип рипа: image+.cue
Битрейт аудио: lossless
Продолжительность: 70:49
Источник: собственный рип
Наличие сканов в содержимом раздачи: да
Треклист:
Passiontide at St Paul's
A sequence of music for Lent, Passiontide and Easter
[1] Anonymous: A Lent Prose
[2] Richard Farrant (?1525-1580): Call to Remembrance, O Lord
[3] Felix Mendelssohn (1809-1847): Symphony No.2, Op.52, 'Lobgesang' - I Waited for the Lord
[4] Edward Cuthbert Bairstow (1874-1946): The Lamentation
[5] John Sanders (1933-2003): The Reproaches
[6] Brian Chapple (b.1945): Ecce lignum Crucis
[7] Anton Bruckner (1824-1896): Christus factus est
[8] Orlando Gibbons (1583-1625): Song 46, 'Drop, Drop, Slow Tears'
[9] Antonio Lotti (c1667-1740): Crucifixus a 8
[10] Charles Wood (1866-1926): This Joyful Eastertide
[11] Edward Cuthbert Bairstow: In Exitu Israel, 'Psalm 114'
[12] Peter Philips (c1561-1628): Ecce vicit Leo
[13] Benjamin Britten (1913-1976): Te Deum in C
Исполнители:
The Choir of St Paul's Cathedral
John Scott Director of Music

Лог создания рипа

Exact Audio Copy V1.0 beta 3 from 29. August 2011
EAC extraction logfile from 7. September 2013, 21:16
St Paul's Cathedral Choir, John Scott / Passiontide at St Paul's - A Sequence of Music for Lent, Passiontide & Easter
Used drive : HL-DT-STDVDRAM GSA-4083N Adapter: 1 ID: 0
Read mode : SecureUtilize accurate stream : YesDefeat audio cache : YesMake use of C2 pointers : No
Read offset correction : 667Overread into Lead-In and Lead-Out : NoFill up missing offset samples with silence : YesDelete leading and trailing silent blocks : NoNull samples used in CRC calculations : YesUsed interface : Native Win32 interface for Win NT & 2000
Used output format : User Defined EncoderSelected bitrate : 896 kBit/sQuality : HighAdd ID3 tag : NoCommand line compressor : C:\Program Files\Exact Audio Copy\Flac\flac.exeAdditional command line options : -V -8 %source%
TOC of the extracted CD
Track | Start | Length | Start sector | End sector --------------------------------------------------------- 1 | 0:00.17 | 3:49.00 | 17 | 17191 2 | 3:49.17 | 2:26.60 | 17192 | 28201 3 | 6:16.02 | 4:51.23 | 28202 | 50049 4 | 11:07.25 | 10:25.60 | 50050 | 96984 5 | 21:33.10 | 13:04.60 | 96985 | 155844 6 | 34:37.70 | 6:30.32 | 155845 | 185126 7 | 41:08.27 | 6:18.68 | 185127 | 213544 8 | 47:27.20 | 1:58.05 | 213545 | 222399 9 | 49:25.25 | 4:05.52 | 222400 | 240826 10 | 53:31.02 | 2:30.28 | 240827 | 252104 11 | 56:01.30 | 2:51.50 | 252105 | 264979 12 | 58:53.05 | 3:42.25 | 264980 | 281654 13 | 62:35.30 | 8:14.10 | 281655 | 318714
Range status and errors
Selected range
Filename J:\New Music\Passiontide at St Paul's\Passiontide at St Paul's.wav
Peak level 94.6 % Extraction speed 2.6 X Range quality 99.9 % Test CRC FA963FEC Copy CRC FA963FEC Copy OK
No errors occurred
End of status report
==== Log checksum BC946F12985B53EF647AE71875874EA7351AACC782C06AD9BE5597E07C7BB7A6 ====
[teatrix.ru].t8028.torrent 
Торрент: Зарегистрирован [ 2015-10-14 02:49 ] · 495E7E761B58451F87019107FCFFD7C771B94CCD

Скачать .torrent

Скачать

35 KB

Статус: проверено
Скачан: 1 раз
Размер: 216 MB
terms.php



Быстрый ответ

Имя:

      
Для отправки сообщений необходимо включить JavaScript
Показать сообщения:    

Текущее время: 10-Дек 00:18

Часовой пояс: UTC + 3


Вы можете начинать темы
Вы можете отвечать на сообщения
Вы не можете редактировать свои сообщения
Вы не можете удалять свои сообщения
Вы не можете голосовать в опросах
Вы не можете прикреплять файлы к сообщениям
Вы можете скачивать файлы